&title=Red and Blue
&artist=Silentroom
&first=-0.65
&des=红温蓝博
&lv_5=14
&inote_5=(150)
{1},
{16},,7,,,8,,,1-5[1:1]b,,,2,,,3h[1:1],,
{1},
{16},,3,,,4,,,5-1[1:1],,,6,,,7h[1:1],,
{1},
{8}3,,4,,5,,6,,
{8}3,,4/2,,6,,5/7,,
{8}2,2,4,4,5,5,7,7,
{16}1,8,2,7,3,6,4h[8:1],5h[16:1],,,{256}4xz8[8:1],5xs1[8:1]b,,,{64},,,{16},,,{8},
{16},,,,2/5,,,3h[8:1]/4,,,3h[8:1]/2,,1-7[12:1],2,1-5[8:1],2,
{16},,,,,,,4/5h[8:1],,,5h[8:1]/6,,{12}7x-1[12:1],7x-5[12:1],7x-3[8:1],
{16},,,,,,,,4/2,,7/8,,1-5[8:1],6,8-3[8:1],7,
{16},,,,B4/E5f,,,,6bq2[8:1]b/2bq6[8:1]b,,,,6b/2b,,,,
{16}8b-4[8:1]b,,,,8,,,6h[8:1]/5,,,6h[8:1]/7,,8-4[8:1],7,8-6[12:1],7,
{16},,,,,,,3/2h[8:1],,,2h[8:1]/1,,{12}1x-7[12:1],1x-3[12:1],1x-5[8:1],
{16},,,,,,,,4/7,,1/2,,2,3,2,3,
{16}1b-5[8:1],,8/7,,1,,6bw2[8:1],,,,,,,,,,
{16}3v8[8:1]/5,,1/2,,3,,,6h[8:1]/1,,,6h[8:1]/8,,7-3[8:1],6,5,4,
{16}3,,1,,5,,,2/4h[8:1],,,7/5h[8:1],,{12}8x-6[12:1],8x-3[8:1],8x-5[8:1],
{16},,,,,,4,7,5/6,,4/2,,1-5[8:1],6,3-8[8:1],4,
{16},,,,B6/B7f,,,,2b-6[8:1]b/8b-4[8:1]b,,,,2b/8b,,,,
{16}1b-5[8:1],,,,1,,,,2/6,,3,4,3,,1/5,,
{16}6/8,,1,,{12}3s7[24:5],3-5[8:1],3,{16}3,,,,,,1hb[4:1]/6b,,
{16},,,,,,8hb[4:1]/3b,,,,,,,,7b/3b,,
{16},,8b/4b,,,,1b/5b,,,,2bw6[4:1]b/6b,,,,,,
{16},,,,,3,4,3,5,4,5,3,4,2,3,1-5[4:1],
{16},,,,,,,,,,7,6,5,,1,,
{16}5/2,,3h[8:1],,4,4,,5h[8:1],,,6,,4h[8:1],,,3,
{16},,2/5,,4h[8:1],,3,3,,,7/4,,5h[8:1],,6,6,
{16},,8,,7b-4[8:1]b/1b-4[8:1]b,,,,,,,,,,6,5,
{16}6,7,8,1,4,3,2,1,7,6,5,4,8,1,2,3,
{16}6,5,7,4,5,3,4,2,5,4,6,5b-1[4:1]b,,,5bh[4:1],,
{16},,,,,,4/8,3/7,2/6,,4/8,,6-4[8:1]b/2-8[8:1]b,,8/4,,
{4}2b-6[8:1]/6b,2-4[8:1]b/6-8[8:1]b,6-2[8:1]/2,6/2-5[8:1]b,
{16}2/8-3[8:1],,,,8/6-1[8:1]b,,,,6/4-7[8:1],,,,4/8-3[8:1]b*-2[8:1]b,,,,
{16}8b-5[8:1],,,,8-6[8:1]b*-3[8:1]b/7,,,,8-4[8:1],,,,8/1v6[8:1]b,,,,
{16}1/7v4[8:1],,,,7/5v2[8:1]b,,,,5/3v8[8:1],,,,7-2[8:1]b/3,6,5,,
{16}7b/3b-6[8:1],,,,7-2[8:1]b/3,,,,7/3-6[8:1],,4,,7-2[8:1]b/3,,8,,
{16}7/3-8[8:1],,,,3/5v2[8:1]b*-3[8:1]b,,,,5-7[8:1],,,,5/4-8[8:1]b,,,,
{16}4b/6b-4[8:1],,,,6-1[8:1]b/2v5[8:1]b,,,,6/2-7[8:1],,,,2/4-1[8:1]b,,,,
{16}4/5-8[8:1],,,,5/6-3[8:1]b,,,,6/7-2[8:1],,,,3-8[8:1]b/7-4[8:1]b,,,,
{1}3bV17V53z7s3[4:6]/7b,,
{16}2/4,,3,,5/6,,2-5[8:1],1,,1,2,,7,,6,,
{16}7/5,,6,,4/3,,7-4[8:1],8,,8,7,,2,,3,,
{16}4,5,4,5,3,6,3,6,4,5,3,6,4,5,3,6,
{16}1,8,1,8,2,7,2,7,1,8,2,7,1,8,2,7,
{16}2,1,2,1,{32}2b,3,4,,{16}1,2,{16}7,8,7,8,{32}7b,6,5,,{16}8,7,
{32}1b,2,3,4,5/1b,8,7,6,5/8b,1,2,3,4/8b,7,6,5,4,3,2,1,{16}8bw4[8:1],,,,8b/B3/B4f/B5/E4/E5,,
{16},,,,3b,4,1,8,4b-6[12:1],5,8-4[8:1],7,4bV27[8:1],,8b,,
{16}5b,,,,6b,5,8,1,5b-3[12:1],4,1-5[8:1],2,5bV72[8:1],,1b,,
{16}4b,,,,6b,6,8,8,4b,4,1,1,{16}7bxV51[8:1]b/3bxV51[8:1]b,6/4,5,,
{16}7b/3b,,,,2/8bV24b[8:1],,1,1,7bv5b[8:1],,6,,7/1b-4b[8:1]*-6b[8:1],2,3,,
{16}1b,,,,2b,1,4,5,8b-6[12:1],7,4-8[8:1],4,8bV25[8:1],,4b,,
{16}6b,,,,7b,8,5,4,1b-3[12:1],2,5-1[8:1],5,1bV74[8:1],,5b,,
{16}3b,,,,1bV75[8:1]b/7,,8,8,2bv4[8:1]b,3,4,,2/8bw4[8:1]b,7,6,,
{16}8b,,,,2b/8b,,3/4,,1b/7b,,5/6,,3b-8[8:1]b/7b-4[8:1]b,,1b/5b,,
{16}3b/7b,,,,{32}1bx,2,3,,{16}5x,5,{32}8bx,1,2,,{16}4x,4,{32}7bx-3[12:1],6,5,4,3,2,1,8,
{16}5b/7b,,,,{32}8bx,7,6,,{16}4x,4,{32}1bx,8,7,,{16}5x,5,{32}2bx-6[12:1],3,4,5,6,7,8,1,
{16}4b/2b,,,,{32}2bx,3,4,,{16}7x,8x,{32}7bx,6,5,,{16}4x,5x,{32}4bxw8[12:1]b,3,2,1,8,7,6,5,
{16}4b,,,,2,8,1,7,{32}2b/8,3,4,5,{16}1,,{32}7b/1,6,5,4,{16}8,,
{32}8b,1/7,2/6,3/5,{16}4,,3b,4x,4x,4x,3b,5x,5x,5x,3b-5[8:1],6x,6x,6x,
{16}3b,,,,6b,5x,5x,5x,6b,4x,4x,4x,6b-4[8:1],3x,3x,3x,
{16}6b,,,,3b,4x,4x,4x,6b,5x,5x,5x,3b-6b[8:1],4x,5x,6x,
{16}3b,,,,4x,4,3,5,2x,6,2,6,1x,7,1,7,
{16}8b,8,8,8,8x,8,8,8,8x,8,8,8,8x,8,8,8,
{16}8b,8,8,8,8x,8,8,8,8x,8,8,8,8x,8,8,8,
{16}8b,8,8,8,8x,8,8,8,8x,8,8,8,8x,8,8,8,
{64}8bs4V68[4:2],8?z4V28[4:2]b,,,{16},{8},,,{2},
{4}1b-3[8:1],7-1[8:1]b,5b-7[8:1],3-5[8:1]b,
{8}1b-3[8:1],1,7-1[8:1]b,7,5b-7[8:1],5,3-5[8:1]b,3,
{16}1b,,1,,2b/8b,,2/8,,{32}3b,,7,,4,,6,,5b,6,7-5q1[1:1]b,8-4qq4[1:1],1,2,3,4,
{1}5b/6b,
{1},
