&title=桔梗之歌
&artist=SEED9-‘Gmajor’
&first=0.088
&des=GR
&lv_5=14
&inote_1=
&inote_5=(150)
{4},,,
{8}4>5[4:2]/5<4[4:2],,,,,,,,1b,,
{16}3,6,5,6,3,6,5,6,3,6,5,,28,,28,,
6,3,4,3,6,3,4,3,6,3,4,,56,,37,,
1,4,3,4,1,4,3,4,1,4,3,,12,,47,,
8,5,6,5,8,5,6,5,8,5,6,,4/8,,,,
37,,26,,1,5,3,5,1,5,3,5,1,5,3,5,1,5,7,5,1,5,7,5,1,,26,,37,,48,,
4,8,2,8,4,8,2,8,4,8,6,,3>6[8:4],,4,,5h[4:2],,,,,,,,,,,,1b,,,,
2,5,4,5,2,5,4,5,2-8[12:1],5,4-8[12:1],,2,,4,,
1,7,5,7,1,7,5,7,1-3[12:1],7,5-1[12:1],,1,,5,,
4,8,6,8,4,8,6,8,4-2[12:1],8,6-4[12:1],,4,,6,,
1,6,3,6,1,6,3,6,1-5[12:1],6,3,,18,,,,
34,,16,,3,5,3,1,3,5,3,1,3,5,3,1,3,5,7,5,3-1[12:1],5,7-5[12:1],5,3v8[12:1],,7v4[12:1],,3,,7,,
2,5,3,5,4,5,6,5,7,5,8,,7/1>7[8:4],,28,,31,,,,,,,,,,,,1b,,,,
37,,,,1-3[12:1]/5,,,5,1-7[12:1]/5,,,5,1-5[12:1]/5,,,5,15,,,,
8-6[12:1]/4,,,4,8-2[12:1]/4,,,4,8/4,,,4,8,5,6,1,8,5,6,1,8,5,6,,
8-4[12:1],,26,,8b/4b>5[8:4],,,,,,,,,,,1,1,,,,
1,7,5,7,2,7,4,7,1-3[12:1],7,5-7[12:1],,1,,5,,
3,8,5,8,2,8,6,8,3-1[12:1],8,5-7[12:1],,3,,5,,
2,5,8,5,3,5,7,5,4-2[12:1],5,6-4[12:1],,4,,6,,
1,6,3,6,8,6,4,6,7w3[12:1],6,5,,7,,,,
1h/5h,,3h/7h,,1,6h,5,6h,1,6h,5,6h,1,6h,5,6h,
1,4h,5,4h,1-3[12:1],4h,5-7[12:1],4h,1v4[12:1],,5v8[12:1],,1,,5,,
2,7h,4,7h,8,7h,6,7h,2-6[8:1],7h,4-8[8:1],,2>1[8:5],,4,,2,,,,,,,,,,,,5,,,,
2h[8:1],,6h[8:1],,3h[8:1],,7h[8:1],,2h[8:1],,6h[8:1],,3h[8:1],,7h[8:1],,
1h[8:1],,8h[8:1],,4h[8:1],,5h[8:1],,3h[8:1],,8h[8:1],,1h[8:1],,6h[8:1],,
2h[8:1],,4h[8:1],,7h[8:1],,5h[8:1],,3h[8:1],,4h[8:1],,6h[8:1],,5h[8:1],,
1>8[8:4],,,,1h[8:4],,,,,,,,,,,,
3,5,4,4,3,5,4,4,3,5,4,,28,,28,,
6,4,5,5,6,4,5,5,6,4,5,,46,,37,,
2,8,1,1,2,8,1,1,2,8,1,,78,,26,,
2,4,3,3,2,4,3,3,2,4,3,,56,,,,
37,,26,,3,7,1,1,3,7,1,1,3,7,1,1,3,7,5,5,3,7,5,5,
3,,26,,15,,48,,2,6,4,4,2,6,4,4,2,6,8,,1>8[8:4]/7,,28,,13,,,,,,,,,,,,1b,,,,
26,,,,4-2[12:1]/8,,,8,4-6[12:1]/8,,,8,4-8[12:1]/8,,,8,48,,,,
5-7[12:1]/1,,,1,5-3[12:1]/1,,,1,5/1,,,1,5,4,7,8,5,4,7,8,5,4,7,,
6-2[12:1],,5,,4b<3[8:4]/6b,,,,,,,,,,,5,5,,,,
3,4,1,1,3,4,1,1,3^8[8:1],4,1,,7,,7,,
6,5,8,8,6,5,8,8,6^1[8:1],5,8,,3,,3,,
2,4,8,8,2,4,8,8,2^5[8:1],4,8,,6,,6,,
7,5,1,1,7,5,1,1,7^4[8:1]*-3[8:1],5,1,,,,,,
2/5h,,4/6h,,
3,4,1,1,3,4,1,1,3,4,1,1,5,6,1,1,5,6,1,1,5,,4/8,,3/7,,2/6,,
2,3,8,8,2,3,8,8,2-5[8:1],3,8-4[8:1],,2<4[8:4],,8,,2,,,,,,,,,,,,
8,,,,4b/5b,,,,2h[4:1],,,,4h[4:1],,,,5-1[8:1],,,,7-3[8:1],,,,8>4[16:5],,,,
4,,5,,6,,7,,4/8-4[8:1],,3,,2,,1,,4/8-4[8:1],,5,,6,,7,,
8^5[8:1]/3,,,,2-6[8:1],,,,7-4[8:1],,,,1-5[8:1],,,,,,,,
8h[4:1],,,,7h[4:1],,,,6h[4:1],,,,5,,4,,3,,2h[8:3],,4,,5,,6,,7,,
1h[8:1],,2h[8:1],,3h[8:1],,4h[8:1],,5h[8:1],,6h[8:1],,7h[8:1],,8h[8:1],,
1b,,,,1b/8b,,,,1b/3b,,,8b/6b,,,4b/5b,,2b/7b,,,,
1/8-4[12:1],,,2,8/2-6[12:1],,,7,7-3[12:1]/2,,,1,1-5[12:1]/7,,,
,1/7-3[12:1],,,2,2-6[12:1]/7,,,8,8/2,,,7,1,5,3,7,1,5,3,7,1,5,3,,
2>8[8:4]/8,,,1,1h[8:4],,,,,,,,,,,4,4,,,,
3,5,4,4,2,5,4,4,1,5,4,,17,,17,,
6,4,5,5,7,4,5,5,8,4,5,,46,,37,,
1,7,8,8,2,6,8,8,3-5[12:1],5,8,,3,,6,,
2,4,3,3,1,5,3,3,8w4[8:1],6,3,,,,,,
2/6h,,4/8h,,
1,7h,2,2h,1,7h,3,3h,1,7h,4,4h,1,7h,5,5h,1,7h,6,,1h/5,,4/8h,,3/7h,,2/6h,,
3,5h,2,2h,3,5h,1,1h,3-5[8:1],5h,8-4[8:1],,3>5[8:4]/7,,8,,3,,,,,,,,,,,,2/7,,,,
4b/5b,,,,2h,,,6h,8h,,,3h,1h,,,5h,4-8[8:14],,,,
{1}4h[4:7],,
