&title=高音厨音域テスト
&artist=木村わいP
&first=0.09
&des=舞萌廚圈速測試
&des_5=wangmou
&des_7=舞萌廚圈速測試
&lv_5=13
&lv_7=回
&inote_5=(180){4},{8},1,2,3,4,5,
6,7,8,1b/8b,,7b/2b,,6b/3b,
,,,3,3h[4:1],6,6h[4:1],2,
2h[4:1],7,7h[4:1],3,3h[4:1],6,6h[4:1],4,
4h[4:1],7,7h[4:1],3,3h[4:1],6,6h[4:1],2,
2h[4:1],7,7h[4:1],2,2h[4:1],6,6h[4:1],1,
1h[4:1],7,7,7,7h[4:1],3,3h[4:1],8,
8h[4:1],4,4h[4:1],7,7h[4:1],3,3h[4:1],6,
6h[4:1],2,2h[4:1],8,7,6,5,4,
3,2,1,1/8h[2:1],,,,,,8-2-7-3[2:1],
,8,,,,,,5-3-6-2-7[8:5],
,5,,,,,,1<4[8:3],
,1,,,,5-8[8:1]*<8[8:1],
,5,,1<4[8:3],,,,,,,,3,
5,4,6,5,
7,4,6,3,5,2,{4}4,
{8},,,2,3h[4:1],5,6h[4:1],4,
3h[4:1],7,8h[4:1],2,1h[4:1],7,6h[4:1],2,
{4}3h[4:1],{8}7,4,3h[4:1],5,6h[4:1],2,
1h[4:1],7,8h[4:1],2,1h[4:1],7,6h[4:1],2,
{4}3h[4:1],{8}6,6,6h[4:1],5,5h[4:1],4,
4h[4:1],3,3h[4:1],2,2h[4:1],3,3h[4:1],4,
4h[4:1],5,5h[4:1],6,7,8,8,1,
1,2,3,4,{32},,,,,,,,,,,,,,,,,,,8-5[32:21]*>5[32:21],
{1},{8}7-2<4[2:1],
,,,,,,,3-6[32:5]/4<6[32:5],
,3/4-1[8:1],,4,,8-5[8:1],
,8,,1<1[8:5],,,,,,,,8,
2,7,1,7,
1,8,2,7b,8b,1b,{4}2b,
{8},,,6h[4:1],1,3h[4:1],8,5h[4:1],
2,4h[4:1],7,6h[4:1],1,3h[4:1],8,5h[4:1],
2,4h[4:1],7,6h[4:1],3,5h[4:1],2,4h[4:1],
1,3h[4:1],8,4h[4:1],1,5h[4:1],2,6h[4:1],
3,5h[4:1],{4}2,{8}7/2,5,7/2,4,
6/3,8,6/3,1,8-4[8:1],8,1-5[8:1],1,
2-6[8:1],2,,3,3h[32:1],4,4h[32:1],5,
5h[32:1],6-3-7-2-8-2[2:1],6,6,,,,,,,,4<1[8:3],
,,,,,8-5[2:1]*-4[2:1],
{4}1,{8},,,,,5-1[8:1]/4-1[8:1],
5/4,5/4,,7-4[8:1]/2-5[8:1],7/2,7/2,
,,,5-8[8:3]*>8[8:3],,,,,,,,2,
6,3,7,4,
8,3,7,2,2,8,{4}8,
{8},,,3,3h[4:1],6,6h[4:1],2,
2h[4:1],7,7h[4:1],3,3h[4:1],6,6h[4:1],4,
4h[4:1],7,7h[4:1],2,3h[4:1],5,6h[4:1],4,
3h[4:1],7,8h[4:1],2,1h[4:1],7,6h[4:1],2,
3h[4:1],,,6h[4:1],1,3h[4:1],8,5h[4:1],
2,4h[4:1],7,6h[4:1],1,3h[4:1],8,5h[4:1],
2,4h[4:1],,5,5,6,6,7,
7,8,8,1h[2:1],,,,,,1,
1,1<4[8:3],,,,,,5,
5,5-8[8:3]*>8[8:3],,,,,,1-4[8:1]*>4[8:1],
1,1,,3-8[8:1],3,3,
,1w5[8:1],1,1,,,,,,,,6,
5,4,3,3,
4,5,6,6,4,2,{4}1,
{8}1x,1x,1x,{16}1x,2x,3x,4x,5x,6x,7x,8x,{8}1x,
1x,1x,1x,{24}8x,7x,6x,5x,4x,3x,2x,1x,8x,7x,6x,5x,4x,3x,2x,
{8}1x,1x,1x,{32}1x,2x,3x,4x,5x,6x,7x,8x,{8}1x,{32},,,,8x,7x,6x,5x,
4x,3x,2x,1x,{8}8x,{32},,,,1x,2x,3x,4x,5x,6x,7x,8x,1x,2x,3x,4x,5x,6x,7x,8x,1x,2x,3x,4x,
5x,6x,7x,8x,{8}1x,,8x/1x,8x/1x,7x/2x,7x/2x,6x/3x,
6x/3x,5x/4x,5x/4x,6x,5x,4x,{4}3x,
{8}6x,5x,4x,3b,4b,5b,{4}6b,
{8}7x,{16}6x,5x,{4}4x,
E
&inote_7=(180){4},{8},1,2,3,4,5,
6,7,8,1b/8b,,7b/2b,,6b/3b,
,,,6,6h[4:1],5,5h[4:1],4,
4h[4:1],3,3h[4:1],2,2h[4:1],1,1h[4:1],8,
8h[4:1],7,7h[4:1],6,6h[4:1],5,5h[4:1],4,
4h[4:1],3,3h[4:1],2,2h[4:1],1,1h[4:1],8,
8h[4:1],7,7,7,7h[4:1],8,8h[4:1],1,
1h[4:1],2,2h[4:1],3,3h[4:1],4,4h[4:1],5,
5h[4:1],6,6h[4:1],8,7,6,5,4,
3,2,1,1/8h[2:1],,,,,,1,
,2,,3,,4,
,8,,7,,6,,5,
,1,,2,,3,,4,
,5,,6>7[8:3],,,,,,,,3,
4,5,6,7,
8,1,2,3,4,5,{4}6,
{8},,,8,7h[8:1],6,5h[8:1],4,
3h[8:1],2,1h[8:1],8,7h[8:1],6,5h[8:1],4,
{4}3h[8:1],{8}2,2,2h[8:1],3,4h[8:1],5,
6h[8:1],7,8h[8:1],1,2h[8:1],3,4h[8:1],5,
{4}6h[8:1],{8}7,7,7h[8:1],6,5h[8:1],4,
3h[8:1],2,1h[8:1],8,7h[8:1],6,5h[8:1],4,
3h[8:1],2,1h[8:1],6,7,8,1,2,
3,4,5,6,{4},,{16},,{32},1,
,,,,,,{8}1,2,3,4,5,
,8,,8,7,6,5,4,
{32},,,1,,,,,,,,,{8}1,2,3,4,5,
6,7,8,1<1[8:5],,,,,,,,8,
7,6,5,4,
3,2,1,8b,7b,6b,{4}5b,
{8},,,6h[8:1],2,7h[8:1],3,8h[8:1],
4,1h[8:1],5,2h[8:1],6,3h[8:1],7,4h[8:1],
8,5h[8:1],1,6h[8:1],2,7h[8:1],3,8h[8:1],
4,1h[8:1],5,2h[8:1],6,3h[8:1],7,4h[8:1],
8,5h[8:1],{32}1,,,,1,,,,{8}1-5[8:1],1,8-4[8:1],8,
7-3[8:1],7,6-2[8:1],6,5-1[8:1],5,4-8[8:1],4,
3-7[8:1],3,,,1,2,3,4,
5,6-3-7-2-8-2[2:1],7,8,,,,,,1,
{16},,1,2,3,4,5,6,7,8,{8}1,
,8,8,{16}8,7,6,5,4,3,2,1,{8}8,
,1,1,{16}1,2,3,4,5,6,7,8,1,2,
3,4,5,6,7,8,{8}1/5-8[8:3]*>8[8:3],,,,,,,,2,
3,4,5,6,
7,8,1,2,3,4,{4}5,
{8},,,6,6h[4:1],5,5h[4:1],4,
4h[4:1],3,3h[4:1],2,2h[4:1],1,1h[4:1],8,
8h[4:1],7,7h[8:1],6,5h[8:1],4,3h[8:1],2,
1h[8:1],8,7h[8:1],6,5h[8:1],4,3h[8:1],2,
1h[8:1],8,,1-5[8:1],1,8-4[8:1],8,7-3[8:1],
7,6-2[8:1],6,5-1[8:1],5,4-8[8:1],4,3-7[8:1],
3,,,6,5,4,3,2,
1,8,7,6h[2:1],,,,,,1,
1,{24}1,2,3,4,5,6,7,,,,,,,,,,,,{8}8,
8,{24}8,7,6,5,4,3,2,,,,,,,,,,,,{8}1,
1,{24}1,2,3,4,5,6,7,8,1,2,3,4,5,6,7,
8,1,2,3,4,5,6,7,8,1,2,3,4,5,6,7,8,1,2,3,4,5,6,7,
8,1,2,3,,,,,,{8}6,5,4,3,3,
4,5,6,6,4,2,{4}1,
{8}1,1,1,{32}1,2,3,4,5,6,7,8,1,2,3,4,5,6,7,8,{8}1x,
1x,1x,1x,{32}8,7,6,5,4,3,2,1,8,7,6,5,4,3,2,1,8,7,6,5,
{8}4,1x,1x,{32}1,2,3,4,5,6,7,8,{8}1,{32},,,,8,7,6,5,
4,3,2,1,{8}8,{32},,,,1,2,3,4,5,6,7,8,1,2,3,4,5,6,7,8,1,2,3,4,
5,6,7,8,{8}1,,8x/4x,7x/3x,6x/2x,5x/1x,6x/2x,
7x/3x,8x/4x,7x/3x,6x,5x,4x,{4}3x,
{8}6x,5x,4x,3b,2b,1b,{4}8b,
{8}1,{48}1x,2x,3x,4x,5x,6x,7x,8x,{24}1bx,
E
