&title=Dragonflame
&artist=Kirara Magic
&first=-0.02
&des=moying
&clock_count=4
&lv_5=12
&inote_5=(165){1},,,
{2},5,,5,,5,,5/3h[1:3],
,4,,5,,6^3[4:3],,1,
{8}26,,3h[8:3],,4,4,,45,,56,,7,7,5,6,4,
,,3h[8:3],,1,1,,28,,37,,4,6,3,5,5,
,,6h[8:3],,5,5,,35,,24,,2,4,3,5,4h[8:5],
,,,,7,6,5,4,,34,,23,,8,7,6,
{8}1b,1,,5,5,,1,1,,5,5,,1,5,1,,
{8}8,8,,4,4,,7,7,,8,8,,6,5,4,3,
{8}12,2,,56,6,,87,7,,43,3,,45,3,12,8,
{8}78,78,,56,56,,23,23,,17,1^4[4:1]/7^4[4:1],,,,,,
{8}1b/8b,1-5[8:1]/8,,4,4-8[8:1],,
1,1-5[8:1],,4,4h[4:1],,
3,2,18,7,
{8}81,8-4[8:1]/1,,5,5-1[8:1],,
6,6-2[8:1],,5,5h[4:1],,
6,47,38,12,
{8}18,1-5[8:1]/8,,4,4-8[8:1],,
2,2^7[8:1],,6,6h[4:1],,
5,7,34,2,
{8}18,1/8-4[8:1],,2,2-6[8:1],,
8,8-4[8:1],,5,5-1[8:1],,7b,,,,
{8}26,3,5,4,8h[8:3],,6,6-3[8:1],,5-8[8:1],,1-4[8:1],,7-2[8:1],,3,
4,5,6,7,1h[8:3]/8,,3,3^6[8:1],,1-4[8:1],,5,5,6,4,3,
12,3,45,6,7/8h[8:3],,6,6-1[8:1],,2-5[8:1],,8,8,7,6,5,
34,5,6,5/7h[4:1],,8,1,2h[4:1],,1,3,4,57,6,24,3,
{1}1b,
{8},2,4,3,6,5,6,6h[4:1],
{8},1,2,3,6,5,6,
{4}1-4[8:1],8-5[8:1],2-7[8:1],3-6[8:1],{8}4,
{8},2,4,3,6,5,6,7h[4:1],
{8},8,7,1,6,5,6,3h[4:1],
{8},2,3,1,4,8,5,
{8}7-4[8:1],,8-3[8:1],,1-6[8:1],,2b,3b,4b,
{2},5h[1:7],,6,,7,,8,,1,,2,,3,,4,
{8}2b/6b,,3h[8:3]/4,,1,1,,7/8-3[8:1],,7-4[8:1],,3,2,1,8,7,
{8}26,,4/5h[8:3],,7,7h[4:1],,8-4[8:1],,1,,3,45,6,7,18,
{8}3h[4:1],,4,,78,7/8h[4:1],,4-8[8:1],,1,2,3,4,5,6,7-4[16:20]/8-3[8:1],
{8},,,,8,1,2,3-8[8:1],,,,1,6,5,4,3,
{8}8b,8-3[8:1],,5,5-2[8:1],,8,8-3[8:1],,6,6-1[8:1],,4,5,6,7,
{8}18,2,3,4,5/6h[8:3],,8,8-3[8:1],,7,6,5,34,2,18,7h[4:1],
{8},5,4,3,2-6[8:1],,4,4-8[16:3],,8-5[16:3],1,,1,2,3,4,
{8}57,8,12,3,46,,13,13,,68,7-4[8:1]/5-2[8:1],,,,,,
{8}8,8,,4,4,,8,8,,4,4,,8,4,8,,
{8}1,1,,5,5,,2,2,,1,1,,3,4,5,6,
{8}87,7,7,56,6,6,34,3,3,12,2,2,24,3,57,6,
{8}45,45,3,28,28,7,36,36,
{16}4,5,4,5,4-8[8:1],5,4,5,{2}4,
||{8}21,21,,43,43,,7b/6b,76,,2b/6b,2-5[8:1]/6-1[8:1],,,,,,
{8}4b/7-4[8:1],4-1[8:1]/7,,8,8-3[8:1],,
5/8-5[8:1],5-2[8:1],,4,4-1[8:1],,
5,6,78,1,
{8}5/2-5[8:1],5-8[8:1]/2,,1,1-6[8:1],,
5-2[8:1],5,,7,6,5,
34,25,16,78,
{8}6^1[8:1],1^4[8:1]/6,,5,5-2[8:1],,
8/5-8[8:1],8-5[8:1],,4,3-6[8:1],2,
1,8,7,56,
{8}4^1[8:1],1^6[8:1]/4,,5,5-1[8:1],,
5^2[8:1]/4,4,,8,8-4[8:1],,1b,,,,
{8}25,1,7,4,5-2[8:1]/6,,5,1-6[8:1],,1,4h[4:1],,7,5,43,3,
{8}27,3,1,5,4/6^3[8:1],,1,2-5[8:1],,2^7[8:1],,3,4,5,6,7,
{8}8-3[8:1],2,3,4,5-1[8:1],,5,7-3[8:1],,3/7^4[8:1],,,3,2,1,1,
{8}28,3,6,4^1[8:1],,8,7,5^2[8:1],,1,8,7,68,15,24,3,
{8}4b/5b,6,8,5,3,4,3,3h[4:1],
{8},1,4,7,3,4,3,3h[4:1],
{8},2,4,8,6,5,2,
{4}1-4[8:1],5-8[8:1],2-7[8:1],{8}6,5,4,
{8}1,8,6,5,7,6,7,1h[4:1],
{8},3,4,1,6,5,6,8h[4:1],
{8},5,2,4,7,6,2,1^6[8:1],,4,,1,,2b/7b,3-7[2:3]/6b,4b/5b,
