&title=Ex-Otogibanashi
&artist=ryo / かぐや , 月見ヤチヨ
&first=0.05
&des=Yuka
&lv_5=13+
&inote_5=(190)
{1},
{4}
E5f,,3h[8:2],4h[8:2],5h[8:2],6h[48:57],{48}E5,,,,,,,,,E4,,,,,,,,,E3,,,,,,,,,E2,,,,,,,,,E1,,,,,,,,,,,,{4}7xh[16:3]/E6f,2xh[16:3]/E4f,5xh[16:3]/Cf,{12}E1,E2,E3,{16}3xV52-6-1[16:10],,,E6,,,B2,,,E7,,,A8,,,,2bx/D4/A3/B3/E4,,,7bx/A6/B6/D7/E6,,,1bx/A4/E5/B4/E4,,,6bx/A7/B7/E8/D8,,,4bx>7q4[8:6]/Cf,,,,{12},,,,,,
{4}
,,{8}E8,,,E7,,,{4}4V27[8:6]/5-1[8:6],,,,,{8}8V64[8:7],,,E5,,,E4,,,E3,,1,1h[8:7],,,,{8}E1,,,E8,,,{4}7-4[8:6]/6-2-4[8:6],,,,,{8}B5/B3,,,B2/B6,,,B1/B7,,,8z4[8:3]
,,
,
{8}
1x,,1x,,1xh[8:1]/4x<8[8:8],,1h[8:1],,1h[8:1],,1h[8:1],,1h[8:1],,1h[8:1],,
1h[8:1]/C,,1h[8:1]/E4,,5x<1[8:8]/1xh[8:1],,1h[8:1],,2h[8:1],,2h[8:1],,3h[8:1],,4h[8:1],,
5h[8:1],,6h[8:1],,5x-1[8:1]/6x,6,6,6,6/8,6,6/1,6,6/2,6,6/3,6,
7/E5,7,8/C,8,{16}1,8,1,8,
1,8,1,8,1,8,1,8,
1,8,1,8,1,8,1,8,
1>7[8:4],8,1,8,
{4}
,,8b<1[8:12],,
{32}B5,E5,,,,,,,{4},,,B8,,1>8[8:12],,
{32}B4,E5,,,,,,,{4},,,C,,1v6<1>4[8:12],,
{32}B5,E5,,,,,,,{4},,,B8,,7<4[8:4],,
{32}B3,B4,,,,,,,{4},C,,1h[8:1]/8h[8:1],{16}1,8,2,7,{4}3xqq8[8:8]/6xh[8:1],6h[8:1],6h[8:1],6h[8:1],6h[8:1],6h[8:1],{8}6h[8:1]/B8,C,{4}6h[8:1]/B4,5xh[8:1]/4xqq1[8:8],5h[8:1],5h[8:1],5h[8:1],5h[8:1],5h[8:1],7h[8:1]/1h[8:1],8h[8:1]/2h[8:1],
{8}
4/3x,2,15,6,8h[8:1]/3,2,6/1h[8:1],7,2x/8,3,16,5,2/8h[8:1],5,1h[8:1]/7,4,
{16}
3,4,3,4,2,5,2,5,1,6,1,6,8,7,8,,7x/8x,,56,,34,,12,,
{4}
1/2,3-8[8:1]/7-4[8:1],{8}3b/7b,,1-5[8:1]/5,1/5-1b[8:1],,,,
2h[8:2]/4,,1-5[8:1],8V62[8:2],1,8bx,,4<8[8:1],3,
4bx/2h[8:3],,1,1-6[8:1]*-5[8:1],
,1>4[8:1],,1/7h[8:2],,8,1pp2[8:2]/5pp6b[8:2],26,
,,,,{16}2b-6[8:1]/1b,,3,4,{8}2,8-3[8:1],
,8-5-2[8:2]/2,,8bx/7x,,1x,1bx-7V53b[8:3],,
6x-2b[8:1]/1x,,6bx,,4xv1[8:1]/8xv5[8:1],,4<7[8:1]/8>3b[8:1],,
,,5xb/6xb,5xb/6xb,,8b/7b,,2/1V36b[8:1],
1bx/2bxh[8:2],{32},B4,B5,E6,{8}A6f,,{16}3<6[8:1]/4,,2,1,{8}3,8V64[8:1],
,18,,3qq5[8:3]/5,,1x,8x,7,
6-1[8:1]*-2[8:1],,6,,3pp3[8:2]*qq3[8:2],,3x,,,
15,,3/7qq1[8:3],,8x,1x>7[8:2],2,3h[8:2],
,,,4b/8b,{16}3,4,2,,{8}3<6[8:1]/1,,
3/7-4[8:1],,7/1pp4[8:3],,8x,7x,6,5V71[8:2],
,1<4b[8:2],3,4V61[8:2],,1<5b[8:2],3,4,
,1,1h[8:2],,2xv4[8:1],2x<6[8:1],,,
,3,2,4/1h[8:6],,6,7,8h[8:2],
,,1<5[8:5]/8>4[8:5],,,,,,
,,,
{48}
2,,,,,,,,,2h[48:33],,,{4},{16}B3,B4,
B5,,D7/A6/E7,,,,{48}
3,,,,,,,,,3h[48:33],,,{4},{16}B3,B4,
B5,,D7/A6/E7,,,,{48}
4,,,,,,,,,4h[48:33],,,{4},{16}B4,B5,
B6,,D8/A7/E8,,,,{48}
8,,,,,,,,,8h[48:27],,,{4},{16}B1/B2/E2,,
,,B4/E4/A4/D4,,,,{48}
7,,,,,,,,,7h[48:33],,,{4},{16}B6,B5,
B4,,D3/A3/E3,,,,{48}
6,,,,,,,,,6h[48:27],,,{4},{16}B6,B5,
B4,,D3/A3/E3,,,,{48}
{8}5x-8[8:3],,,2,2-5[8:3],,,7,
7xV53[8:3],,,1,1q5[8:1],,,,
8h[8:1],,8/1,8,8/2,8,8/3,8,
8/4-2[8:1],8,8,8,8/1v6[8:1],8,8,8,
75,7,7/4,7,7/3,7,7/2,7,
6/3>8[8:1],6,6,6,5/7-2[8:1],5,5,5,
34,{16}3,4,{8}3,35,36,37,38,31,
65,{16}6,5,{8}6,64,63,62,61,68,
{16}4,5,4,5,3,6,3,6,
2,7,2,7,1,8,1,8,
1,8,1,8,
1,8,1,8,
{32}
E2,E3,E4,E5,E6,E7,E8,E1,
A1,A2,A3,A4,A5,A6,A7,A8/D8/E8,
{2},,,
{96}
,,,,,,6<1[9.7##1.1],,,,,,,,,,,,,,,,,,,,,,,,,,,5,,,,,,,,,,,,,,,,,,,,,,,,,,4,,,,,,,,,,,,,,,,,,,,,,,,,3,{8},,,,,,,,,,
{96},,,,,,,,,,6<4[6.95##2.24]*<4[6.95##2.24],,,,,,,,,,,,,,,,,,,,,,,,,,,5,,,,,,,,,,,,,,,,,,,,,,,,,,4,,,,,,,,,,,,,,,,,,,,,,,,,3,{8},,,,,,,
,,,,,
{96},6<6b[4##3],,,,,,,,,,,,,,,,,,,,,,,,,,,,,,,5,,,,,,,,,,,,,,,,,,,,,,,,,,,,,,,,,,4,,,,,,,,,,,,,,,,,,,,,,,,,,,,,,,,,3,{8},,,
,,,,,,,,
,,,
{96},,,,,,,,E6,,,,E5,,,,E4,,,,,
,,,,,,,,
