&title=寝言は寝て言え
&artist=月ノ美兎
&first=0
&des=謎ノガチャガチャ
&des_5=project lj
&clock_count=4
&lv_5=13+
&inote_5=(129){4},{8},,,,,,7,
6h,5h[8:1],4h[8:5],,,,,6,
5h,4h[8:1],3h[8:5],,,,,6,
5,6,8,{16}1/2,,,3,,,{8}6h[1:1]/4h[1:1],
,,,,,,,,2,
3h,4h[8:1],5h[8:5],,,,,3,
4h,5h[8:1],6h[8:5],,,,,3,
4,3,1,{16}7/8,,,5xh[16:15],,,{8}3xh[4:3],
{24},,,,,,,,,,,,,,,,,,{12}4,{24}4,5,,5,
{8}4b,3,5/4,{24}6,,6,{8}5-1[8:1],4/3,{4}5/4,
{8}5,6,5/4,{24}3,,3,{8}4-8[8:1],5/6,{4}4/3,
{8}7-3[8:1],3V57[8:1],7V13V58[8:3],1,2h[16:3],,,1,
2/7,4,6/5,{24}3,,3,{8}1>5[8:1],8/7,{4}1/8,
{8}8b,7,1/8,{24}2,,2,{8}1-5[8:1],8/7,{4}1/8,
{8}1,2,1/8,{24}7,,7,{8}8-4[8:1],1/2,{4}8/7,
{8}3-7[8:1],7V13[8:1],3V57V14[8:3],5,6h[16:3],,,5,
6/3,6/2,1h/5h,8bh[8:5]/4bh[8:3],,,,,4,
{16}3,3,{8}7,{24}6,5,6,4,6,5,7,,,{8}1,{16}8,8,
{8}6,{24}3,4,3,5,3,4,2,,,{8}7,{16}6,6,{8}4/3,{24}2,4,2,
4,3,5,4,,,{8}2,{16}3,3,{8}5/6,{24}7,5,7,5,6,4,5,,,{8}1,
{16}2/6,3,{8}4/7,{24}5,4,3,2,1,8,7/3,,,{8}8,{16}7/3,6,
{8}5/2,{24}4,5,6,7,8,1,2/6,,,{8}3,{16}5/4,5/4,{8}5/3,{24}6,7,8,
1/4,3,2,1,,,{8}3,{16}1/8,1/8,{8}1/7,{24}2,3,4,{8}5,4/2,
{4}4x/6xh[4:3],{8},,,,E4,B7/E8/E2/B2,
{24},,,3,,3,{8}4,{24}6,4,6,{8}5,{24}3,5,4,{4}6h[4:1],
{8}8b-4[16:1],7,8V24[16:1],6,8v5[16:1],7,{4}8,
{16}2/1b-5[16:1],,,3,{8}1V75[16:1],2,1v4[16:1],2,{4}1,
{8}3/5b-1[16:1],4,5V72[16:1],3,5-2[16:1],4,{4}5,
{8}6/4b-8[16:1],{16}5,5,{8}4-2<1[16:1],6,4z8[16:1],5,{4}4<5<6<7>8>1>2>3b[8:5],
4/5h[8:1],{8}5,6,{4}7h[8:1],{8}8-4[8:1],1,
{4}8/2-6[8:1],2/5-1V74[8:3],5/3V14[8:1],3,
{8}6/5,{24}8,,8,{12}1/2,{24}3,4,,4,{12}6,{24}6,8,,8,{8}2,{24}3/4,,6,
{8}6/4-8-4[4:1],7,{4}8-6[16:1]/4-2[16:1],{8},B5/B1,A7/D3,{24}4x,5x,4x,
{8}5bx-1[16:1],4h[8:1],5V71[16:1],3h[8:1],5v2[16:1],4h[8:1],{4}5,
{16}6/4b-8[16:1],,,5,{8}4V28[16:1],6h[8:1],4v7[16:1],5h[8:1],{4}4,
{8}8b-4[16:1],1h[8:1],8V63[16:1],2h[8:1],8-3[16:1],1h[8:1],{4}8,
{8}8/1b-5[16:1],{16}7,7,{8}1V36[16:1],8h[8:1],1-6[16:1],7h[8:1],{4}1<8<7<6>5>4>3>2b[8:5],
1/8h[8:1],{8}8,7,{4}6h[8:1],{8}5-1[8:1],4,
{4}5/3-7[8:1],3/8-4V61[8:3],8/2V41[8:1],2,
{8}7/8,{24}5,,5,{12}4/3,{24}2,1,,1h[8:1],,,7,5,,5,{8}3,{24}2/1,,8,
{8}8/1-5-1[4:1],6,{4}5pp2[8:3]/1pp6[8:3],{8},,,,1x/8x,
3,6/2,{24}3,,3,{8}8,4,{4}6/2,
{8}7/3,6,5/1,6,7/3,6,{4}5/1,
{8}3/7,4,1/5,{24}4,,4,{8}7,3,{24}6/2,,,,,1,
{8}8,6,5/1,6,7/2,3/5,{4}8/6,
{8}5/1,6,3/7,{24}6,,6,{8}1,5,{4}3/7,
{8}2/6,3,4/8,3,2/6,3,{4}4/8,
{8}6/2,5,8/4,{24}5,,5,{8}2,6,{24}3/7,,,,,8,
{8}1,3,4/8,3,2/7,6/4,3/1-5b[16:1],8/6,
{1}4h[2:3]/1V75V38V64-2-7-4-1<3[2:7],
{4},,,2V86V41V75-3b[4:7],
{8},,,,,,,,,,,,,,,,6/4-8[8:1],
5/3,{4}4/2,{8}2/8-4[8:1],1/7,{4}6/8,
{8}3/5-1[8:1],6/4,5/7,{24}8,,8,{8}1-5[8:1],8/2,{4}3/1,
{8}4,4,7,{24}6,,6,{8}4,3,2,{24}3,,3,
{8}5,6,7,{24}8,,8,{8}1V75[8:1],2,{4}3/1,
{8}4,{16}3,3,{8}6,{24}2,5,1,5,2,5,3,,,{8}5,{16}6,6,
{8}3,{24}7,4,8,4,7,4,6,,,{8}1,{16}7,7,{8}2,{24}1,8,2,
7,2,7,4,,,{8}8,{16}2,2,{8}7,{24}8,1,7,2,7,2,5,,,{8}3,
{16}6,6,{8}4/5,{24}3,2,1,8,7,6,5/1,,,{8}6,{16}3,3,
{8}5/4,{24}6,7,8,1,2,3,4/8,,,{8}3/7,{16}2/8,1,{8}8/7,{24}6,5,4,
1,2,3,4/7,,,{8}6/2,{16}7/1,8,{8}1/2,{24}3,4,5,{8}6,5/2,
7xh[4:3]/3xh[4:3],,,,,,,6/2,
{24},,,,,,{12}5x,5x,6x,{24}4w8b[16:1],5,4,6,3,5,,,,,,,{8}4b-8[16:1],
5,4V28[16:1],6h[8:1],4V68[16:1],5h[8:1],{4}4,
{16}5b-1[16:1],,,4,{8}5V71[16:1],3h[8:1],5V31[16:1],4h[8:1],{4}5,
{8}1b-5[16:1],8h[8:1],1V35[16:1],7h[8:1],1v4[16:1],8h[8:1],{4}1,
{16}8b-4[16:1],1,8,1,{8}8V64[16:1],2h[8:1],8v5[16:1],1h[8:1],{4}8<7<6>5>4>3>2b[8:5],
8/7h[8:1],{8}7,6,{4}5h[8:1],{8}4-8[8:1],3,
{4}4/2-6[8:1],2/7-4-8[8:3],7/3v1[8:1],3,
{16}2/7,3,{8}4,6/5,{16}7/4,3,,1,,1,8/7h[8:1],,,6/5,
{8}4,3,3/4,5,6/5,E8/E4,{4}6h[4:1]/E2,
{16}4bV28[16:1],3,4,5,{8}4v7[16:1],5h,4v6[16:1],3h[8:1],{4}4,
{16}5bV71[16:1],,,3,{8}5v2[16:1],4h,5v3[16:1],6h[8:1],{4}5,
{8}1b-4[16:1],7h[8:1],1v6[16:1],8h,1V35[16:1],2h[8:1],{4}1,
{8}8b-5[16:1],{16}2,2,{8}8v3[16:1],1h,8V64[16:1],7h[8:1],{4}8>1>2>3<4<5<6<7b[8:5],
8/1h[8:1],{8}1,2,{4}3h[8:1],{8}4-8[8:1],5,
{4}4/6-1[8:1],6/2V48[8:3],2/5v7[8:1],5,
{16}6/1,2,{8}3,5/6,{16}2/4,5,,7,,7,1/8h[8:1],,,4,
{8}3,5,6/4,3,{4}7h[2:1]/2qq5[4:3],2b,
,6,,3/6,
2h[2:1]/7<4[4:1],7,,3/6,
5h[2:1]/4-2<1[4:1],4,,1/6,
2/4h[8:1],3/5h[8:1],{8}6/4,6/4,{4}2/1,
7h[2:1]/2>5[4:1],2,,6/3,
3h[2:1]/5p7[4:1],5,{8},,6/2,4,
5/3,{16}3x,4x,{8}2x,1x/4x,{4}8x/2x,3x/6x,
{1}5x,
E
