&title=Diamond Dust
&artist=Masahiro"Godspeed"Aoki
&first=-0.15
&des=MGRB feat.GSS "Re:Sparklez"
&des_5=MGRB feat.GSS "Re:Sparklez"
&lv_5=14.6
&inote_5=(200){4},{8},,2>5[4:1],1,8,7p4[8:5],
,E1,{4}C,{2}2xh[4:1],
{8}E1,E5,E3,E7,2>5[8:1],1,8,7>2[8:1],
6,5,4<7[8:1],3,2,1>4[8:1],8,7,
6-1[8:1],5-2[8:1],6,5,7<4[4:1],8,1,2q5[8:5],
,E1,{4}C,{2}7xh[4:1],
{8}E1,E5,E7,E3,7<4[8:1],8,1,2<7[8:1],
3,4,5>2[8:1],6,7,8,8<5[8:1],2x-6[8:1],
8x-4b[8:1],2b,{4}8b,{16}5h[8:1]/2h[8:1],,,1h[8:1]/6h[8:1],,,7/8b,1,
2,3,{8}4/6,{16}4h[8:1]/7h[8:1],,,8h[8:1]/3h[8:1],,,2/1b,8,7,6,{8}5/3,
2/6,{16}7,6,5,4,8,1,2,3,{8}4/6,7-4[8:1],8,
7,2-5[8:1],5-3-8[8:1],2,8,7x-1[8:1],1x-5-7[8:1],7,
{4}2-6[8:1],2b,{16}4h[8:1]/7h[8:1],,,8h[8:1]/3h[8:1],,,2/1b,8,
7,6,{8}5/3,{16}5h[8:1]/2h[8:1],,,1h[8:1]/6h[8:1],,,7/8b,1,2,3,4/8,5/7,
{4}6<1[8:1]*-4[8:1],6b,{16}2,3,4,5,{8}6b/8h[8:1],{16}1,2,
3,4,{8}5b/7h[8:1],{16}8,1,2,3,{8}4b/6h[8:1],{16}7,8,1/5,2/6,3/7,4/8,
{4}5-2[8:1]/1-6[8:1],1b/5b,{2}B1/B5/B7/B3/Cfh[1:1],
{4},,2b,B7/E8,
{8},5,E2/B2,5h[4:1],,4,E8/B7,4,
6-4[8:1],7,{4}E2/B2,{8}3,3,E8/B7,4,
,6,E2/B2,6,7<4[8:1],3,2,1>4[8:1],
7x-3b[8:1],1x-5[8:1],7b,1b,,,{4}2/E8/B7,
{8},6,E2/B2,6h[4:1],,4,E8/B7,3,
5,6,E2/B2,6,3,3,E8/B7,4h[4:1],
,6,E2/B2,6,4/5,3,{16}7,1,7,1,
6,2,6,2,{4}Ch[4:1],{8}B2/B3/B7/B6,,,2-5[8:1],
8V61[4:1],2,8,B2/B3/E3,,E7/B7/B6,{16},,3,4,
{8}2h[8:1],6h[8:1],4h[8:1],8h[8:1],1,2h[8:1],7,6h[8:3],
2,3h[8:3],,6-8-2[4:1],,2>5-8[8:3],{4}4xh[2:1],
{32},,,,,,,,,,,,,,,,8x/2x,E3,B3,B4,{8}E5,,6>4[8:1],
8,6<4[4:1],8,2h[4:1],{32},,,,,B4,C,B8,,,,,{16}6,5,
{8}7h[8:1],3h[8:1],5h[8:1],1h[8:1],8q5[8:1],7>4[4:1],6,7x,
,,2h[8:1],6h[8:1],1q5[8:1],2,7-2[8:1],6,
3v8[8:1],4<3[8:3],3x,4x,,,C,{16}4x,5x,
{8}6xh[8:1],2,1,7-4[8:1],,1-6[8:1],{16},,3-8[8:1],4x,
{8}5x,7,6,5,3/4-7[8:1],5,4/3-8[8:1],2,
3/6,6-3[8:1],,2-7[8:1],,2<3[8:3],{4}6h[2:1],
{32},,,,,,,,,,,,,,,,7x/3x,E3/E7,B2/B6,B1/B5,{8}E1/E5,,3x/5x,
2x/6x,8,2/6,4-8[8:1],,7-5[8:1],{16},,1x,2x,
{8}3x,4,6-4[8:1],{16}7,4x,{8}2-8[8:1],3,7<4[8:1],7h[4:1],
,,2-6[8:1],6-4-8[4:1],2,8,7V51[8:3],6,
2,2,3,3,{2}4bpp7[4:3],
{8}7,7,6,6,{4}5qq2[4:3],{8}4,4,
,4x,3x,2x,{2}1xqq6[4:3],
{8}6,6,7,7,{4}8pp3[2:1],{8}2x,2x,
,4h[4:1],,,5b/7b-3[8:1],4,3,2b-6[8:1],
,6,7,8b-4[8:1],,8b<5[8:1]*>3[8:1],,8b,
,1/7,{4}6/2,{8}7b/5b,{16}6,4,{8}6,2b/4b,
{16}3,5,{8}3,2b/6b,4bh[4:1]/8bh[4:1],{48},,,,,,,D4/D8,A3/A7,D3/D7,A6/A2,D2/D6,{4},,{16}3b,
7,2,8,{4}1bh[16:3],{16}2/6,3/7,{8}4b/8b-4[8:1],
,8b/Cf/3b-7[8:1],,3b/Cf/5b-1b[8:1]*v8[8:1],{24},,,5b,B5,Cf,{8}B1,2xh[16:3]/6xh[16:3],
{16},,1,7,2,6,3,5,{8}4h[4:1],8,5h[4:1],8,
3h[4:1],1,6h[4:1],1b>4[8:1],{24},,,8x/A1,7x/A2,6x/A3,{4}A4/5x-2[8:1]*-8[8:1],
5b,{16}1,8,2,7,{8}3b-8[8:1],{16}8,7,{8}6b/3b-5b[8:1],{16}7,6,
{8}3b/5b,6,7,8b-6[8:1],{16},,2/8b-4b[8:1],3,{8}4b,{16}1/8b,2,
{8}3b,2,1,8bqq5b[4:1],{16},4b,,,2bqq7[4:1],,,6b,
,,{8}5b-8b[8:1],{16},3bx,{32},,,,1b,2,3,4,5,6,7,8,,A1,A2,A3,A4,A5,A6,A7,
{4}A8/B8/B1/A1/E1f,{16}6b,2,7,1,{4}8bh[16:3],{16}7/3,6/2,{8}5b/1b-5[8:1],
,1b/Cf/6b-2[8:1],,6b/Cf/4bv1[8:1]*-8b[8:1],{24},,,4b,B4,Cf,{8}B8,7xh[16:3]/3xh[16:3],
{16},,8,2,7,3,6,4,7bV51[4:1],,,5,{8}7,3b,
{16}2b-6-4[4:1],,,8,{8}2,7b,{32}A8,A7,A6,A5,A4,A3,A2,A1,A8,A7,A6,A4/A5/B4/B5/E5f/E1f/B1/B8/A8/A1,,,,,,,,,,,,,{16}1,
6,2,5,3b,4,3,4,3,4,2b,4,
3,4,3,4,1b,4,3,4,3,4,{32}8b,7,6,5,4,3,2,1,6b,7,8,1,
2,3,4,5,6b/2b,1,8,7,6,5,4,3,2,1,8,7,{2}6xh[4:13]/2xh[8:15],
,,,8xh[6:11],
{6},,,,,,5x,
4x,3x,2bxqq7>3V57[4:13]/6bxqq3<7V13b[4:13],{1},,,{4},,,{16},{48},{16}4-2[8:1],
,,6,{8}4,8h[8:3],
{16},1x,,,1-5[0.222##0.15],,,7-3[0.222##0.15],,,{8}4-1[0.222##0.15],{16},8-5[0.222##0.15],,,{8}8x,
2h[8:3],,4x,{16}4-8[0.222##0.15],,,2-6[0.222##0.15],,,{8}7-4[0.222##0.15],
{16},3x,,,2-7[0.222##0.15],,,8bx-5b[0.222##0.222],,,{8}5x-2[0.222##0.222],{16},2x-7[0.222##0.222],,,{4}7x>6[0.222##0.375],
6x-1b[8:1],{24},,,2b,,3,,4,,8,,7,
,6,,1,,2,,3,,7,,6,,5,,4,,3,,4,,3,,2,
,1,,8,,7,,6,,5,,2,,1,,8,,6,,5,,4,,8,
,7,,6,,2,,3,,4,,7,,6,,5,,1,,2,,3,,4,
,5,,6,,5,,6,,7,,6,,7,,8bxh,,6,,6,,4xh,,2,
,2,,3xh,,7,,7,,1xh,,5,,5,,8h,,6,,4h,,1,,3h,
,5,,7h,,7h,,5,,5,,3h,,3h,,1,,8,,7,,5,,4,
,3,,8,,7,,6,,4,,3,,2,,7,,6,,5,,3,,2,
,1,,1,,8,,8,,6xh,,5x,,4x,,{8}3xh[2:1]/7xh[2:1],,,,,2,
7,8h[4:1],1,2h[4:1],7,
6h[8:1],{24}4xh,,7,,7,,5xh,,2,,2,,3xh,,5,,1,,6,,4,
,8,,{8}2h[8:1],4h[8:1],6h[8:1],8h[8:1],4h[8:1],6h[8:1],2h[8:1],
8h[8:1],3x<1[8:3],{16},6x,,,{8}1x-3-5-7-2[16:5],8xh[4:1],{16},,,,,,,E6f/B6/B5,
,,,2-5[8:1],,2,,6-1[8:1],,6,,3-8[8:1],
,3,,7-4[8:1],,7,{8}1,1,{16}1b,2,3,4b,5,6b/1b,
2,3,4b,5,6b/1b,2,3,4b,5,6bh[16:7]/2bh[16:7],,,,,,,,,{8}B2/B6,
{16},,,5x,1x,7x,3x,5xh[16:3],{48},,,,,,,,,4/6,,3/7,
,2/8,,{16}1b-5b[8:1],,,,1b<6b[8:1]*>4b[8:1],,,,1bw5b[8:1],{32},,,,,,A1/E1/E2,B1,Cf,B5,{16}A5,
,7xh[16:3]/3xh[16:3],,,,8,1,2,3,4,5,6/2-5[8:1],,1,,2/6-3[8:1],
,7,,6/1<3b[8:3],,2,,6x,,6xh[8:1],,,,7x,,7x-4[8:1]*-2[8:1],
,,,A7f,,,,1,8,2,7,3b-5[8:1],,8b,7,6/3b-8[8:1],
,8b,7,6/3b,,5,,6-1[8:1],,7b,,6b-4[8:1],,2b,3,4/6b,
,1b,2,3/7,,2/6,,5/1,,2b-6-8[16:3],,,8b-4b[16:3],,,4b,
,,{8}6bV82[16:3],{16},2bpp6b[16:3],,,5b,,,1bx>4b[8:1],{48},,,,,,,,,8x,,7x,
,6x,,{16}5x/E5f/D5,,,,,,8x,4x,6x,2x,8xqq4[4:1],,,,3x,
2x,1xh[4:3],{48},,,,,,,,,A8f,,A7,,A6,,{16}A5,{48},,,A2f,,A3,,A4,,{16}A5,{32},,A7f,B7,C,B3,{16}A3,
,5xh[2:1],,,,6,7,8,1,2,3,4x-8[8:1],{48},,,,,5x,,,,{16}4b,
{48},6x,,,,,,,,{16}7x-4[8:1],{48},,,,,8x,,,,{16}7b,{48},1x>8b[0.195##0.195],,,,,,,,{16}5bx,{32},,,,,A1,A2,A3,
A4,A5,A6,A7,{8}A8/B1/B8/A1/E1f/E5f/A5/A4/B5/B4,,7x/3x,{24},,,2b,3,4,5,6,7,8,1,2,
3,4x/7b,6,5,4,3,2,1,8,7,6x/2b,3,4,5,6,7,8,1,2,3x/7x,8,1,2,3,
4x/8x,1,2,3,4,5/2x,3,4,5,6,7,8,1,2,3,1b,{48},{16}4x,3x,4,3,4,
1b,5x,4x,5,4,5,1b,6x,5x,6,5,6,1b,2,3,4,
{32}8b,7,6,5,4,3,2,1,8b,7,6,5,4,3,2,1,8b,7,6,5,{8}4bx/8bxp4p8b[8:3],{16},C,,,{8}6xV42V86[2:1],
,,E8/B8/E1,{16},C,,,{4}3xV17V53b[2:1],
{8},E6/B5/E5,{16},C,,,{8}7xpp3V57[2:1],,,E1/B8/B1,
{16},C,,,{4}2x-4-1qq5b[2:1],{8},B8/E8/B7,{16},C,,,{8}6xqq3[4:1],
,,B1/E1/B8,,2x-5[0.222##0.15],{16},7,,,8x-4[0.222##0.15],
,,3,,,{8}1x-5[0.222##0.15],{16},6,,,7x-2[0.222##0.15],,,2,
,,{8}3x-6[0.222##0.15],{16}7b,8,1,2,3,4,{8}5bxh[8:1],{24}4bx,5h[8:1],,3bx,,5h[8:1],
{8}2bx,1bx/5h[8:1],{24}8bx,5h[8:1],,7bx,,5h[48:5],{8}6bx,5b-8[0.222##0.15],{16},1b-4[0.222##0.15],,,7b-2[0.222##0.15],
,,3bx,{32},,,,8bxqq4[4:3]*pp4[4:3],1x,2x,3x,4x,5x,6x,7x,{8}8x,{16},,,,,,,,,,,,,,,1bq5[8:1],
,,8,1,
,7-2[8:1],,,,7,,3bqq8[16:5],,,,7,,6,,5,
,4bpp7[16:7],,4,,,,,{8}3,2,1,8,
{16}1b/B6/B5/E6f,2,3,4,5,6,7bx/E4f/B3/B4,8,1,2,3,4,5bx/E2f/B1/B2,6,7,8,
1,2,{32}3bx,4,5,6,7,8,1,2,3x/7bx,6,5,4,3,2,1,8,{8}3b/7b>8-5<6-2<1-4>3[0.6##4.197]*<6-1<8-4<5-2>3b[0.6##4.197],
E
