&title=Marigold
&artist=M2U ft. Guriri
&first=0.05
&des=東雲陽炎
&lv_5=14
&des_5=東雲陽炎
&inote_5=
(160){4},,,,1h[4:1],
2h[4:1],3h[4:1],4h[4:1],
8h[4:1],7h[4:1],6h[4:1],5h[4:1],
{2}4>4[1:1],{4}4,3,
{2}4<4[4:3],1v4[4:1],
{4},5h[4:1],6h[4:1],7h[4:1],
{2}8>4[2:1],4>8[2:1],
{8}8pp2[2:1],,,2,2pp4[2:1],,,4,
4pp6[2:1],,,6,{2}6pp8[2:1],
{8}6h[2:1],,,4,4h[2:1],,,2,
2h[2:1],,,8,{2}8h[1:1],
{1},,{32}8b/1b,
7/2,6/3,5/4,,,,,{16}4,6,3,5,{24}2,3,4,5,6,7,{4}4/8,
{16}7/1-5[8:1],,,7,{4}1/7-3[8:1],{16}7/2-6[8:1],,,6,{4}6/2,
{16}7/5,,,8/4,{4}4/8-2[8:1]*-3[8:1],8-6[8:1]*-5[8:1],8,
{16}4/2,,,5/1,{4}5/1-5[8:1],1w5[8:1],1,
{32}1b,2/8,3/7,4/6,,,,,{16}1,7,2,8,{24}3,2,1,8,7,6,{4}5/1,
8-2[8:1]/4-6[8:1],8-5[8:1]/4-1[8:1],{2}8-4[8:1]/4-8[8:1],
{16}1h[2:1],,,5,{4}5h[4:1],{16},8,7,6,5,4/8,3/7,2/6,
1/5,8b/4b,,,,,,,{2}1,
2,3,
4h[8:7]/3h[8:3],2h[8:7],
5h[2:3],{8}3,2,1,{24}1,2,3,
{1}4h[2:1],
{8}4/5p4[16:11],,,,,3,3,2,
2q4[2:1],,,7,{2}7<3[2:1],
{8}3pp6[2:1],,,2,{4}2,1,
{8}8pp5[2:1],,,7,{2}6h[4:1],
{8}6/4p1[1:1],,,,,6,7,8,
1>4[8:3],,,4p6[8:5],{2}5h[8:3],
{4}7,7,8,1-4[8:1]*-6[8:1],
{2}1b,{8}5,4,3p6[4:3],2,
2h[4:1],,,1,{2}1h[4:1],
{4}2/8,{8}2/8-3[8:1],7,{4}8/6,{8}8/6-1[8:1],7,
{4}6/4,{8}6/4-7[8:1],5,{4}2/4,2-6[8:1],
{2}2h[4:1],{8}4,5,6-1[4:1],7,
{4}6/1-4[4:1],4-7[4:1],7-3[4:1],3-6[4:1],
2,2,1,8w4[8:1],
{2}8b,8h[4:1]/1h[4:1],
{16}1b/7h[4:1],2,3,4,5,6,7,8,1/6h[4:1],2,3,4,5,6,7,8,
1/7h[4:1],2,3,4,5,6,7,8,1/6h[4:1],2,3,4,5,6,7,8,
{2}1h[4:7]/7h[4:1],{8}4h[4:1],,,5,
{2}5h[4:1],{4}6,7,
{16}2b,3,4,5,6,7,8/4h,1,2/4h,3,4,5,6,7,8/5h,1,
2/5h,3,4,5,6,7,8/6h,1,2/6h,3,4,5,6,7,8,1,
{8}2h[2:3],,,3h,3h,,,4h,
4h,,,5h,{2}5h,
{8}7h[4:7],,,6,6,,,5,
5,,,4,4,,,2,
1h[4:1]/3h[4:1],,,7,8h[4:1]/6h[4:1],,,3,
4h[4:1]/2h[4:1],,,6,{4}7-5[8:1]/5-2[8:1],5/7,
{16}4b,6,3,7,2,6,1,5,3,6,4,7,3,8,2,1,
4b,8,3,7,2,8,2,8,{24}1,2,3,4h[4:1]/1-5[8:1],,,,,,{8}1,
3b,{16}6,5,{8}6,7/4,{16}2-4[8:1],8,1,7,{8}2,{24}8b,7,6,
{8}5h[8:1],8,{24}8b,7,6,5h[8:1],{48},,,,{16}8,7,6,5,4/8,1,2,3,
{8}4/8,{16}5,7,{8}5,8/4,{16}4/8,3,2,1,8/4,7,6,5,
{8}4/8,{16}1,3,{8}1,8/4,{16}8/4,1,2,3,4/8,5,6,7,
{8}8/4,{16}4,8,3,1,{8}2h[8:1],{16}8,2,7,3,6,4,{8}5,
6/4,6/4,7/3,3/7,{16}2,8,2,8,{4}2h[4:1],
{16}1b,8,7,6,5/4,3,2,1,8/7,6,5,4,1,2,3,4,
5/6,7,8,1,4,3,2,1,{24}7,6,5,4h[4:1]/8-4[8:1],,,,,,{8}8,
{4}6h[4:1],{16}4,6,3,6,2,6,3,6,4,7,3,7,
{8}2,4/2,6,6/4,3,5/3,{4}5h[8:1]/3h[8:1],
{8}5/2,{16}4,4,{8}3,7/4,{16}5,5,{8}6,7/4,3/8,
8/3,{16}1,1,{8}2,6/1,{16}8,8,{8}7,6/1,6/1,
7/2,{16}3,4,{8}6/5,7/2,{16}6,5,{8}4/3,{4}7h[8:1]/2h[8:1],
{8}6/3,{16}8/1,7/2,{8}6/3,3/6h[4:1],5,7,1/5,6/2,
{2}7h[4:1]/3h[4:3],{8}4,5,{4}6,
5/7h[4:3],6,8,1,
8/2h[4:3],1,{2}4h[4:1],
5<3[2:1],{4}3<5[4:1],5<7[4:1],
7>1[4:1],1>3[4:1],{2}3>5[4:3],
{4},,4,3,
2/6h[4:3],3,4,5,
{8}1q4[2:1],,,,,5,6,7,
7p4[2:1],,,8>3[8:1],{2}8,
{8}4pp6[2:1],,,6,6pp8[2:1],,,8,
8pp2[2:1],,,2,{4}2pp4[2:1],4,
{8}3qq8[4:3],,,,,4,5,6,
{4}7h[4:1],8h[4:1],6h[4:1],1h[4:1],
8,8/7qq4[8:5],1/7,1-4[8:1],
{2}1b,6h[4:1]/2h[4:1],
{16}3b,6,3,6,4,7,4,7,5,6,7,8,1/5,6,7,8,
3,1,3,1,2,8,2,8,1,8,7,6,5/1,4/8,3/7,2/6,
{2}5h[4:7]/1h[4:1],{8}4,,,3,
{2}3h[4:1],{4}4,3,
{16}1b/5b,2/6,7/3,4/8,5,6,7,8,1/5,2/6,7/3,4/8,1,2,3,4,
1/5,2/6,7/3,4/8,5,6,7,8,1/5,2/6,7/3,4/8,{4}5/1h[1:2],
{8}2,,,3,3h[4:1],,,4,
4h[4:1],,,5,{2}5h[1:2],
{8}1,,,8,8,,,7,
7,,,6,6,,,4,
4,,,3,3,,,2,
2,,,1,{2}1>1[1:3]*<1[1:3],
E
