&title=Nyarlathotep's Dreamland
&artist=Raimukun
&first=-0.03
&des=ZetDeluge
&lv_5=14
&des_5=ZetDeluge
&inote_5=
(200){4},{16},,,,,,,,,,,,,,
,,,,,,,,,,,,,,{1}1-5[2:3],
{8},7,,,,,2h[16:1],2h[16:1],
{1}8-4[2:3],
{8},2,,,,,7h[16:1],7h[16:1],
3,5,4,6,4,5,3,6,
,7/4,6,5,4/2,3,4,5,
5/6,6,3/4,3,5/7,7,4/2,2,
,6/3,7/2,8/1,{16}1,8,2,7,3,6,4,5,
4b,3,{8}2,{16}5,6,{8}7,{16}1,2,{8}3,{16}8,7,{8}6,
1-5[8:1],1,1/7-4[8:1],7,7/2-5[8:1],2,{4}2/8,
{16}8,7,{8}6,{16}4,3,{8}2,{16}7,6,{8}5,{16}3,2,{8}1,
8-4[8:1],8,8/2v5[8:1],2,2/7<4[8:1],7,{4}7/1,
{8}2-5[8:1],2,,8-5[8:1]*-3[8:1],8,8,,2,
2-4[8:1],7-3[8:1],2-8[8:1],7V51[4:1],2,7,{16},,,,2,
4,3,5,4,6,5,7,4,6,3,5,2,4,1x,8x,
{1}7xh[1:1]/2xh[4:3],
{16}1b,2,3,4,5,6,7,8,5,6,7,8,1,2,3,4,
8,1,2,3,4/5,6,7,8,1/2,3,4,5,{4}6/7-3[8:1],
{8}7b,{16}8,1,2,3,8,7,6,5,1,2,7,6,2,3,
6,5,4,3,2,1,8,7,6/2,5/1,4/8,3/7,{4}6h[4:1]/2h[4:1],
{32},3x/7x,4x/8x,5bx/1bx,,,,,{16}2,3,4,5,6,7,2,3,4,5,6,7,
1,2,8,7,2,3,7,6,3,4,6,5,2,3,7,6,
1,2,3,4,2,3,4,5,3,4,5,6,2,3,4,5,
8,7,6,5,7,6,5,4,6,5,4,3,7,6,5,4,
{4}3bx,{8}6/5,6,4/3,3,5/4,6,
4/5,3,7/2,8/1,{12}3,1,2,6,8,7,
{4}1,{16}1,8,1,8,1,8,1,8,2,7,2,7,
3,6,3,6,4,5,4,5,{2}3bh[2:1],
{4}6bh[2:1],{16}4,3,2,1,8,7,6,5,8,7,6,5,
1,8,7,6,2,1,8,7,3,2,1,8,4,3,2,1,
8b,4,8,4,8,4,8,4,1b,5,1,5,1,5,1,5,
{2}Cf,{16}E1,E2,E3,E4,E5,E6,E7,E8,
{1}1x>8[4:29],
,,,,,,,{8}1>3[8:1],
,,7<5[8:1],,,{4}2pp4[8:1],
{8},8,{4}8<5[8:1],8>3[8:1],8,
{8}2>4[8:1],,,8<6[8:1],,,{4}5qq3[8:1],
{8},1,{4}1<6[8:1],1>4[8:1],1,
{8}1-6[8:1],,,8-3[8:1],,,{4}2-5[8:1],
{8},7-4[8:1],,,{4}1w5[16:3],1,
{16},,,,3,4,{8}3,{16}8,1,{8}8,{16}5,6,{8}5,
{16}6,4,5,3,6,4,5,3,7,4,5,2,7,4,5,2,
5b,3,5,3,5,2,5,2,5,1,5,1,5,2,5,2,
{2}5h[2:1],{32}1,2,3,4,5,6,7,8,1-5[8:1],2,3,4,5,6,7,8,
{384}1,Cf,{16},,,{64},,,{96},{4}7bx/3bx,{16}3,4,{8}2,{16}6,5,{8}7,
4/2,{16}3,4,{8}3,7/5,{16}6,5,{8}6,{16}4,5,3,5,
{4}4,{16}2,4,3,5,4,6,5,7,1,8,{8}1,
7/2,7,3/6,3,{4}5-1[8:1]/4-8[8:1],4b<3[8:3]/5b>6[8:3],
5b/4b,,,6h[8:1]/3h[8:1],
{8}7/5,{16}6,5,{8}6,4/2,{16}3,4,{8}3,{4}5/4,
{16}6/3,,,7/2,,,{8}8/1,{16}1,8,2,7,3,6,4,5,
{12}3,3,3,6,6,6,{32}2-6[0.6##0.15],3,4,5,6,7,8,1,{4}2h[8:1]/6h[4:1],
2bx,{32}7b/1b,6/2,5/3,4,,,,,,,,,,,,,{4}8-6[8:1]/4-2[8:1],
4/8-4[8:1],{8}8v5b[8:1],2v5b[8:1],8<6[8:1],2>4[8:1],8,2,
{12}5,5,5,6/4,,,1,1,1,2/8,,,3,
1,2,6,8,7,{32}1b,2,3,4,5,6,7,8,5-1[8:1]/1-5[8:1],4,3,2,1,8,7,6,
{384}5,Cf,{4},{16},,,{64},,,{96},{16}3,6,4,5,3,6,4,5,
2,7,4,5,2,7,4,5,{12}3/6,3/6,3/6,3/6,,,{1}1>1[1:2],
,1-3-5-7-1[1:2],
,1<7-5>3-1b[1:2],
,1<1b[2:3],
8<5[2:1],
{8}8-4[8:1],,,2,{4}2-5[8:1],2,
{8},7,{4}7-4[8:1],7-1[8:1],7,
{8}2-5[8:1],,,8,{4}8-4[8:1],8,
{8},2,{4}2-5[8:1],2-8[8:1],2,
{16}7-5[8:1],,,8,{4}7,{16}1-3[8:1],,,8,{4}1,
{16}8-6[8:1],,,1,{4}8,{16}2-4[8:1],,,1,{4}2,
{8}8-6[8:1],1-5[8:1],8-4[8:1],1-3[8:1],8,1,{32}8,7,6,5,4-8[0.75##0.15],3,2,1,
{2}8h[2:1],4bx,
{16}3,4,3,4,2,5,2,5,1,6,1,6,8,7,8,7,
1,8,1,8,2,1,2,1,3,8,3,8,4,7,4,7,
5,6,5,6,4,3,2,1,5,6,7,8,2,3,4,5,
8,7,6,5,1,2,3,4,5/8,7,6,5,4/8,1,2,3,
4/7b,6,5,4,3,1,2,3,4/8,7,6/2,3,4/7,6,5/1,2,
3/8,7,6,5,2,4,2,4,2,6,2,6,2,8,2,8,
{8}2,1/7,{16}2,4,3,5,4,6,5,7,1-5[8:1],8,2,7,
{4}1b<6[8:1]*>4[8:1],1bs5[8:1],{2}1b,
{16}1,8,1,8,1,{32}7,6,{8}5,{16}8,1,8,{32}2,3,{8}4,{32}7,6,{16}5,
2,1,2,1,{32}3,4,{16}5,,,1,2,1,2,{32}8,7,{16}6,,,8,
7,8,7,8,7,{32}1,2,{16}3,{32},,,,6,5,{16}4,,,{8}8/1,
{32}8b/1b,7,6,5,,,,,8b/1b,2,3,4,,,,,1,2,{16}3,{32}8,7,{16}6,{32}1,2,3,4,5,6,7,8,
{4}1,{16}2,8,2,8,1,7,1,7,3,4,2,5,
1,6,8,7,1,8,1,8,2,7,2,7,3,6,3,6,
4b,5,4,5,4,5,4,5,{24}4,5,4,5,4,5,4,5,4,5,4,5,
{2}4,{8}E7,B8,B4,E3,
8-6[8:1],,,1-5[8:1],,,{4}2-4[8:1],
{8},7,2>5[8:1],6,2,6-1[8:1],4,6,
{4}3,8/2-5[8:1],2/8-4[8:1],8/1-5[8:1],
1/7-4[8:1],7/1,{12}3,2,1,7,6,5,
{8}1>3[8:1],,,6<8[8:1],,,{4}3<6[8:1],
{8},8-6[8:1],3,8-2[8:1],5,8,4,7,
{4}8/1-5[8:1],1,1/8-4[8:1],8,
8/1-4[8:1],7/1pp5[2:1],{16}6/1,,,6,,,{8}7,
{4}8,{8}7<4[8:1],1,7,2,5,1-5[8:1],
2,7-4[8:1],6,2-5[8:1],3,8-4[8:1],{4}7,
{16}B3,B2,{8}B1,{16}B7,B6,{8}B5,{16}3,2,{8}1,{16}7,6,{8}5,
{16}2,4,2,4,3,5,3,5,4,6,4,6,5,7,5,7,
{6}3,{12}3,4,,4,{6}5,{12}5,6,,6,
2,1,2,7,8,7,2,4,3,7,5,6,
2,2,2,6,6,6,4/8,4/8,4/8,8/4,8/4,8/4pp6>2b[0.4##0.9],
{1}4b/8bpp2<6[4:3],
{8},,,8b<1s5[8:27]/1b>8z4[8:27],{1},,,{4},,,{8},5,
4,6,3,5,
4,6,{4}3,{8}6,4,5,3,
6,4,5,E7,B8,B4,E3,E8,
B5,B1,{4}E4,{8}E3,E1,E2,E8,
E1,E7,{32}5xqq5[2:3],B2,E3,A3,
E
