&title=Aegleseeker
&artist=Silentroom vs Frums
&first=0
&des=Lemonfox
&des_2=SBGA
&des_3=SBGA
&des_4=はっぴー
&des_5=サファ太 vs 翠楼屋
&des_6=and in that light, I found deliverance.
&des_7=Ori_DX
&clock_count=4
&lv_2=5
&lv_3=8
&lv_4=12+
&lv_5=14
&lv_6=14+
&lv_7=15+?
&inote_2=(234){1},
{1}C1h[1:4],
{1},
{1},
{1},
{1},
{1},
{1}C1,
{1},
{1}B1/B8,
{1},
{1}B2/B7,
{1},
{1}B3/B6,
{1},
{1}C1,
{1},
{1}1x-4[4:5],
{1},
{1},
{1}5,
{1}5-8[4:5],
{1},
{1},
{1}1/8,
{1}7,
{1}6,
{1}5,
{1}4/5,
{1}4,
{1}3,
{1}2,
{1}1/8,
{1}1-4[4:5],
{1},
{1},
{2}5,5,
{1}5-8[4:5],
{1},
{1},
{1}1/8,
{2}1,1,
{1}2,
{2}3,3,
{1}4,
{2}5,5,
{1}6,
{2}7,7,
{1}7/8,
{1}7h[1:1]/8h[1:1],
{1},
{1}5h[1:1]/6h[1:1],
{1},
{1}3h[1:1]/4h[1:1],
{1},
{1}1h[1:1]/2h[1:1],
{1},
{2}1/2,1/2,
{1}1/2,
{2}3/4,3/4,
{1}3/4,
{2}5/6,5/6,
{1}5/6,
{2}7/8,7/8,
{1}7/8,
{2}8,8,
{2}7,7,
{2}6,6,
{2}5,5,
{2}4,4,
{2}3,3,
{2}2,2,
{2}1,1,
{2}2,2,
{2}3,3,
{2}4/5,4/5,
{2}6,6,
{1}7h[1:1]/8h[1:1],
{1},
{1}B8,
{1}B7,
{1}B6,
{1}B5,
{1}B4,
{1}B3,
{1}B2,
{1}B1,
{1}E1,
{1}B1/B8,
{1}B2/B7,
{1}B3/B6,
{1}B4/B5,
{1}C1h[1:1],
{1},
{1},
{2}1b/8b,1/8,
{2}2,2,
{2}3,3,
{4}4,4,4/5,,
{2}5,5,
{2}6,6,
{2}7/8,7/8,
{1}7/8,
{2}1b/8b,1/8,
{2}7,7,
{2}6,6,
{4}5,5,4/5,,
{2}4,4,
{2}3,3,
{2}2,2,
{2}1/8,1/8,
{1}2xh[1:1]/7xh[1:1],
{1},
{4}1b,1,1,,
{4}2,2,2,,
{4}3,3,3,,
{4}4,4,4,,
{4}5,5,5,,
{4}4/5,4/5,4/5,,
{4}6b,6,6,,
{4}7,7,7,,
{4}8,8,8,,
{4}1,1,1,,
{1}1h[1:2]/8h[1:2],
{1},
{1},
{1}1x/8x,
{4}8b,8,8,,
{4}7,7,7,,
{4}6,6,6,,
{4}4/5,4/5,4/5,,
{4}3,3,3,,
{4}2,2,2,,
{4}1,1,1,,
{2}1/8,1/8,
{1}2h[1:2]/7h[1:2],
{1},
{1},
{1},
{1}B1/B8,
{1}B2/B7,
{1}C1fh[1:1]/B3/B6,
{1},
{1},
{1},
E
&inote_3=(234){1},
{1},
{1},
{1},
{1},
{1},
{1},
{1}C1fh[1:8],
{1},
{1},
{1},
{1},
{1},
{1},
{1},
{1},
{1},
{2}2,2,
{2}3,3,
{2}4,4,
{1}5/6,
{2}7,7,
{2}6,6,
{2}5,5,
{1}3/4,
{4}3,3,3,,
{4}4,4,4,,
{4}5,5,5,,
{8}5bx/6bx,,,5bx/6bx,,,,,
{4}6,6,6,,
{4}5,5,5,,
{4}4,4,4,,
{8}3bx/4bx,,,3bx/4bx,,,,,
{4}3,3,2,2,
{4}1,1,7/8,,
{4}6,6,7,7,
{4}8,8,1/2,,
{4}3,3,2,2,
{4}1,1,7/8,,
{4}6,6,7,7,
{4}8,8,1/2,,
{4}2,2,1/2,,
{4}3,3,3/4,,
{4}4,4,4/5,,
{8}5bx/6bx,,,5bx/6bx,,,,,
{4}7,7,7/8,,
{4}6,6,5/6,,
{4}5,5,4/5,,
{1}3b/4b,
{1}2h[1:1],
{1}3h[1:1],
{1}4h[1:1],
{1}5,
{1}7h[1:1],
{1}6h[1:1],
{1}5h[1:1],
{1}4,
{1}3h[1:1],
{1}2h[1:1],
{1}1h[1:1],
{1}8,
{1}6h[1:1],
{1}7h[1:1],
{1}8h[1:1],
{1}1,
{2}B2,B3,
{1}B4,
{2}B7,B6,
{1}B5,
{2}B1,B2,
{1}B3/B4,
{2}B8,B7,
{1}B5/B6,
{2}B1,B2,
{2}B3,B4,
{2}B5,B6,
{2}B7,B8,
{1}C1f,
{1},
{1}1-6[4:3]/2-5[4:3],
{1},
{1}6-3[4:3]/7-2[4:3],
{1},
{1}3-8[4:3]/4-7[4:3],
{1},
{1}5-2[4:3]/6-1[4:3],
{1},
{1}2-7[4:3]/3-6[4:3],
{1},
{1}7-4[4:3]/8-3[4:3],
{1},
{1}4-1[4:3]/5-8[4:3],
{1},
{1}1b/8b,
{1},
{4}7,7,5/6,5/6,
{4}4,4,3/4,,
{4}2,2,3/4,3/4,
{4}5,5,5/6,,
{4}7,7,5/6,5/6,
{4}4,4,3/4,,
{4}2,2,3/4,3/4,
{4}5,5,5/6,,
{4}6,6,7/8,7/8,
{4}1,1,1/2,,
{4}3,3,1/2,1/2,
{4}8,8,7/8,,
{4}6,6,7/8,7/8,
{4}1,1,1/2,,
{4}3,3,1/2,1/2,
{4}8,8,7/8,,
{1}1h[2:3]/8h[2:3],
{1},
{4}1/8,1/8,2/7,2/7,
{4}3/6,3/6,4b/5b,,
{4}3/4,3/4,2,2,
{4}1/8,1/8,7,7,
{4}5/6,5/6,7,7,
{4}7/8,7/8,7/8,,
{4}5/6,5/6,7,7,
{4}1/8,1/8,2,2,
{4}3/4,3/4,2,2,
{4}1/2,1/2,1/2,,
{1}1<6[4:3]/2>5[4:3],
{1},
{1}7<4[4:3]/8>3[4:3],
{1},
{4}2,2,1/2,1/2,
{4}3,3,3/4,3/4,
{4}5,5,5/6,5/6,
{4}7/8,7/8,7/8,,
{4}7,7,7/8,7/8,
{4}6,6,5/6,5/6,
{4}4,4,3/4,3/4,
{4}1/2,1/2,1/2,,
{1}1h[1:3]/8h[1:3],
{1},
{1},
{1},
{4}1,2,3,4,
{4}5,6,7,8,
{4}1,2,3,4,
{1}4b/5b,
{1},
{1},
{1},
E
&inote_4=(234)
{1},
1h[1:7]/8h[1:7],,,,,,,,
4h[8:5]/6h[8:5],3h[8:5]/5h[8:5],4h[8:5]/7h[8:5],2h[8:5]/5h[8:5],4h[8:5]/6h[8:5],3h[8:5]/5h[8:5],2b/6b,,
8h[4:12]/1-7-2-6-3-5b[4:10],,,,1h[4:12]/8-2-7-3-6-4[4:10],,,{4}3,3,4,4,
{8}3/5,3/5,,2/6,2h[4:1]/6h[4:1],,,,4/6,4/6,,3/7,3h[4:1]/7h[4:1],,,,
3/5,3/5,,2/6,2h[4:1]/6h[4:1],,,,1/7,1/7,,2/6,2h[4:1]/6h[4:1],,,,
4/6,4/6,,7/8,7h[4:1]/8h[4:1],,,,3/5,3/5,,1/2,1h[4:1]/2h[4:1],,,,
4/6,4/6,,3/7,3h[4:1]/7h[4:1],,,,2/8,2-5[4:1]/8-5[4:1],,,,,,,
{4}5/6h[4:1],7h[4:1],8h[4:1],1h[4:1],2h[4:1],3h[4:1],4h[4:1],5h[4:1],6h[4:1],7h[4:1],8h[4:1],1h[4:1],2h[4:1],3h[4:1],4,,
4/3h[4:1],2h[4:1],1h[4:1],8h[4:1],7h[4:1],6h[4:1],5h[4:1],4h[4:1],3h[4:1],2h[4:1],1h[4:1],8h[4:1],7h[4:1],6h[4:1],5,,
{8}5/6,5/6,,7/8,7/8,,5b,,3/4,3/4,,1/2,1/2,,4b,,
5/6,5/6,,7/8,7/8,,5b,,4/6,4/6,,3/7,3/7,,5b,,
4/3,4/3,,2/1,2/1,,4b,,6/5,6/5,,8/7,8/7,,5b,,
4/3,4/3,,2/1,2/1,,4b,,3/8,3-6[4:1]/8-5[4:1],,,,,,,
{4}6h[1:4],E5,E6,E7,E8,E1,,,D8/E8/B8,,D2/E2/B2,,D4/E4/B4,,,,
3h[1:4],E5,E4,E3,E2,E1,,,D2/E2/B1,,D8/E8/B7,,D6/E6/B5,,,,
7h[1:4],5,5,5,4<8[2:1],,,,8<4p3[4:5],,,,,,,,
2h[2:7],4,4,4,3,3,3,3,1>5[2:1],,,,5h[2:1],,,,
{8}6,6,4,4,5,5,3,3,6,6,4,4,5,5,2,2,
5,5,3,3,4,4,2,2,5,5,3,3,4,4,1,1,
6,6,3,3,4,4,1,1,6,6,3,3,4,4,1,1,
7,7,3,3,
6,5,4,6,5,4,3,4,5,3,4,5,
7,6,5,7,6,5,2,3,4,2,3,4,
5,6,7,5,6,7,4,3,2,4,3,2,
8,8,4,4,6,6,5q6<4b[4:7],5,,,,,,,,,,,,,,,,,
{8}5,,,6h[1:1],,,,,4,,,5h[1:1],,,,,3,,,4h[1:1],,,,,3,,,3,,,,,
3,,,3h[1:1],,,,,5,,,4h[1:1],,,,,6,,,5h[8:5],,,,,6,,,,,,,,
{4}6,6,6,6,5,5,5,5,4,4,4,4,3,3,3,3,
4,4,4,4,5,5h[2:5],4,4bh[1:2],,,,,,,,,
{8}8<5[8:1],,,1>4[8:1],,,5,,6<1[8:1],,,5>2[8:1],,,8,,
7<4[8:1],,,8>3[8:1],,,5,,6,6h[8:1],8,8h[8:1],1,1h[8:1],3,,
6<1[8:1],,,2>5[8:1],,,7,,7>2[8:1],,,3<6[8:1],,,8,,
7,7h[8:1],5,5h[8:1],4,4h[8:1],2,,1/2,,3/4,,5/6,,7/8,,
1>4[8:1],,,8<5[8:1],,,4,,3>8[8:1],,,4<7[8:1],,,1,,
2>5[8:1],,,1<6[8:1],,,4,,3,3h[8:1],1,1h[8:1],8,8h[8:1],6,,
3>8[8:1],,,7<4[8:1],,,2,,2<7[8:1],,,6>3[8:1],,,1,,
2,2h[8:1],4,4h[8:1],5,5h[8:1],7,,8/7,,6/5,,4/3,,2>1b[2:3]/1,,
{1}C,,
{8}7,7,7,7,7/8,7/8,7/8,,6,6,6,6,5/7,5/7,5/7,,
2,2,2,2,2/1,2/1,2/1,,3,3,3,3,4/2,4/2,4/2,,
6,6,5,5,4/6,4/6,4/6,4/6,3,3,4,4,5/3,5/3,5/3,,
2-4[8:1],2,8-6[8:1],8,1-5[8:1],1,8x,,7-5[8:1],7,1-3[8:1],1,8-4[8:1],8,1x,,
2-4[8:1],2,8-6[8:1],8,1-5[8:1],1,8x,,7-5[8:1],7,1-3[8:1],1,8-4[8:1],8,1x,,
{1}2h[2:7],,6h[2:3],,
{8}7h[4:1],,5,4,3,3,4,2,6,6,5,7,4,4,3/5,,
2h[4:1],,4,5,6,6,5,7,3,3,4,2,5,5,6/4,,
7h[4:1],,8,1,2,2,4,3,7,7,5,6,4,4,3/5,,
2h[4:1],,1,8,7,7,5,6,2,2,4,3,5,5,6/4>5[1:2],,
{1}C,
{3},,E3,E4,E5,E6,E7,,,
{16}6,5,6,,,,3,4,3,,,,1b/8b,,,,
3,4,3,,,,6,5,6,,,,8b/1b,,,,
{6}7b,6,5x,4bx,3,2x,1bh[8:1]/8bh[8:1],
&inote_5=(234)
{1},
{1}5h[1:7]/4h[1:4],,,,,,3h[3:8],,
{8}E4,,,,4h[8:9],,,,E5,,,,5h[8:9],,,,E6,,,,6h[8:9],,,,E6,,,,5h[8:9],,,,E5,,,,4h[8:9],,,,E4,,,,3h[2:3],,,,Ch[1:1],,
{4},,,
{1},
{9999}8x<1[2:5],
{8}1bxs5s1b[2:5],
{1},,
{4},,,
{8},8,8,2,2,7,7,81,,
{9999}8xz4z8[2:5],
{8}1bx>8b[2:5],
{1},,
{4},,,
{8},1,1,7,7,3,3,45,,
{16}6,5,6,5,6,,4,5,4,5h[4:1],4h[16:3],,,,,,
3,4,3,4,3,,5,4,5,4h[4:1],5h[16:3],,,,,,
7,8,7,8,7,,1,8,1,8h[4:1],1h[16:3],,,,,,
2,1,2,1,2,,8,1,8,1h[4:1],8h[16:3],,,,,,
6,5,6,5,6,,3,4,3,4h[4:1],3h[16:3],,,,,,
3,4,3,4,3,,6,5,6,5h[4:1],6h[16:3],,,,,,
7,8,7,8,7,,2,1,2,1h[4:1],2h[16:3],,,,,,
7,2,7,2,7,,
{9999}8x-5[8:1],
{8}1x-4b[8:1],,,
{16},,,6bx,,
{32},
{16}A3,E4,E5,A5,B2,C,B6,A6,A1,E1,E8,A7,
A2,E3,E4,A4,B1,C,B5,A5,A8,E8,E7,A6,
A3,E4,E5,A5,B2,C,B6,A6,A1,E1,E8,A7,
A2,E3,E4,A4,B1,C,B5,A5,A8,E8,E7,A6,
A3,E4,E5,A5,,1bx,,,,,,,,,3bx,,
{32},
{16}A6,E6,E5,A4,B7,C,B3,A3,A8,E1,E2,A2,
A7,E7,E6,A5,A8,B8,C,B4,A1,E2,E3,A3,
A6,E6,E5,A4,B7,C,B3,A3,A8,E1,E2,A2,
A7,E7,E6,A5,A8,B8,C,B4,A1,E2,E3,A3,
A6,E6,E5,A4,,
{8}8bhx[4:1],,1bx,,
{16},6,5,6,5,6,,3,5,3,5,3,,24,,,,
3,4,3,4,3,,6,4,6,4,6,,57,,,,
6,5,6,5,6,,3,5,3,5,3,,24,,,,
2,8,2,8,2,,7,8,7,8,7,,26,,,,
7,5,7,5,7,,3,5,3,5,3,,26,,,,
3,5,3,5,3,,7,5,7,5,7,,84,,,,
2,8,2,8,2,,7,8,7,8,7,,6x/1xs5[4:1],,
{4},,,,
{8},7bx/3bx,,
{12}6,5,4,6,5,4,6,5,4,6h[6:1],,5h[6:1],,4h[3:2],,,,,,,,
5h[6:1],,6h[6:1],,7,,
{8},67,
{8},5h[8:9]/6-2>5-8[8:5],,,,,,,,,8h[8:3],,,
{16}5,4,3,
{12},
{6}8,7,6,7,6,5,
{12}3h[6:1],,4,5,6x,
{16}6x-3[16:3],,,3,,
{8}3x-8-5[4:2],,1,,4,,3,3,3h[8:3],,,6,,5b/4b,,
{12}3,4,5,3,4,5,3,4,5,
{6}3h[6:1],4h[6:1],
{8}5,,3,3,3h[4:1],,1h[4:1],,8,,7,7,7-4[6:1],,4>6[351#3:2],,3h[8:3],,,,,,,
{12}6,5,4,6,5,4,6,5,4,7,6,5,8,7,6,1,8,7,2,1,8,3hx[3:1],,,,4,5,
{8}6,3,3,3<6[6:1],,7,7,7,
{6}1bx/8bx,1bx/8bx,
{16}1bx/8bx,,,1x,2x,8x,7x,1x,2x,8x,7x,1,2,8,7,1,2,8,7,
1x,2x,8x,7x,1x,2x,8x,7x,1,2,8,7,1,2,8,7,
2x,3x,7x,6x,2x,3x,7x,6x,2,3,7,6,2,3,7,6,
2x,3x,7x,6x,2x,3x,7x,6x,2,3,7,6,2,3,7,6,
3x,4x,6x,5x,3x,4x,6x,5x,3,4,6,5,3,4,6,5,
3x,4x,6x,5x,3x,4x,6x,5x,3,4,6,5,3,4,6,5,
3x,4x,6x,5x,3x,4x,6x,5x,2bx,3bx,7bx,6bx,
2,3,7,6,2,3,7,6,1bx,2bx,8bx,7bx,1,2,8,7,1,2,8,7,
2b,3,4,5,1,8,7,6,4h[4:1],,,,1b,8,7,6,4,3,2,1,5h[4:1],,,,
8b,1,2,3,5,6,7,8,5h[4:1],,,,1b,8,7,6,4,3,2,1,5h[4:1],,,,
2b,3,4,5,8,7,6,5,2h[4:1],,,,7,1,7,1,7,,,2,8,2,8,2,
1hx[16:1],,1hx[16:1],,1hx[16:1],,1hx[16:1],,8h[16:1]/2h[16:1],,8h[16:1]/2h[16:1],,
7h[16:1]/3h[16:1],,7h[16:1]/3h[16:1],,6h[16:1]/4h[16:1],,6h[16:1]/4h[16:1],,3-8b[16:1]/5h[16:1],,3h[16:1]/5h[16:1],,
{64},
{1},,,,,,,,
{4}6>4[4:1],3,3,3,3<5b[4:1],5,6,6,6>4[4:1],4,3,3,3<5b[4:1],5,6h[4:1],5,4h[8:1]/5h[8:1],45,4h[8:1]/5h[8:1],36,3h[8:1]/6h[8:1],72,7h[8:1]/2h[8:1],8-4b[29.25#64:1]/1-5[29.25#64:1],8h[2:3]/1h[2:3],,,,,,,1x/8x,
{8}6bx/3bx-7b[8:1],,7,8<5[8:1],,
{32}1,2,3,4,
{8},,3/6-2b[8:1],,2,1>4[12:1],,
{32}8,7,6,5,
{8},,6/3-8b[8:1],,6,7<4[12:1],,
{32}8,1,2,3,
{8},,12,83,74,65,74,83,1x/2x,,8-3[16:1]/3,,5,4h[4:1],,
{8}5,5,3,2-5[16:1]/4,,5,6h[4:1],,5,5,6,
{4}7-3[8:1]/3,4-8[8:1]/7,4/6-3[8:1],6/1,
{8}12,12,8-4[8:1]/3-8[8:1],,38,,1x/5x,,6b-1b[8:1]/1b,,
3,2>5[12:1],,
{32}12,8,7,6,
{8},,3-8b[8:1]/8,,6,7<4[12:1],,
{32}87,1,2,3,
{8},,2-5b[8:1]/5,,7,6<1[12:1],,
{32}56,4,3,2,
{8},,43,52,61,78,61,52,34,,
6-1b[8:1],4,3,2>5[12:1],,
{32}12,8,7,6,
{8},,3-8b[8:1],5,6,7<4[12:1],,
{32}87,1,2,3,
{8},,Cf/1-7-5-3-6[21:16],,,,,,,,8,8,6,6,4,,35,,8-4[4:1],,
{4},,,8-4b[4:1],,,,
{16}2b/5b,,3,4,3,,54,,6,5,6,,47,,38,,
{8}2>4[8:1],5,2-6[8:1],7,2,5,8b,,
{16}47,,6,5,6,,47,,3,4,3,,25,,61,,
{8}7-5b[8:1],8-4b[8:1],7,8,1-5[8:1],2-4[8:1],1,2,
8,8h[8:1],6,6h[8:1],4,4h[8:1],2,2,28,
{16}7,3,7,,1,5,1,,
{8}62,2b/6b,,
{16}7b,5,7,5,6h[16:1],,2b,4,2,4,3,,25,,,,
7b,5,7,5,8h[16:1],,2b,4,2,4,1,,78,,,,
1b,6,2,5,3h[16:1],,6b,5,7,4,8,,12,,,,
8,1,8,1,7<1[8:1],2,7,2,,,,,8b,,,,
{4}1x-5[2:1]/7x,,,,1-5b[2:1],,,,1qq6[2:3]*pp4b[2:3],,,,,,,,
{8}5-1[8:1],5,1,2,3-7b[8:1],3,4,5,6>3[8:1],7,8,1<6b[8:1],2,3,4b,,
1-5[8:1],1,5,6,7-3b[8:1],7,8,1,2<7[8:1],3,4,5>2b[8:1],6,7,8b,,
7-3[8:1],7,3,4,5-1b[8:1],5,6,7,8<5[8:1],1,2,3>8b[8:1],4,5,6b,,
6-2[8:1],6,2,3,4-8b[8:1],4,5,6,7<4[8:1],8,1,2<7[8:1]b,3,4,5b-8[8:1],,E5/B4f/E4,,,,,,,,
{4},4,
{8},4,,,4h[8:3],,
{12},
{8}2h[8:3],,
{12},
{8}8h[8:3],,
{12},
{8}6h[4:3],,,,,,5x,,
{16}7,5,7,5,7,,1,4,1-3[8:1]*-4b[8:1],4,1,,,,,,
8,5,8,5,8,,2,4,2-6[8:1]*-5b[8:1],4,2,,,,,,
{12}8,8,2,2,4,4,6,6,8,8-4[8:1],2,2,Ch[16:1],
&inote_6=(234)
{1}
,4h[1:6]/5h[1:6],,,,,,,,
{8}
4h[8:7]/C,,,,,5,,,5h[8:7]/C,,,,,4,,3,
3h[8:7]/C,,,,,5,,,6h[8:7]/C,,,4,,3,,4,
4h[8:7]/C,,,,,5,,,5h[8:7]/C,,,,,4,,4,
{1}
,,1bV72-6-3-5>4V63-7-2-8>1<8b[4:9]`8<8[4:9],,,
{16}
1h[8:1]/8h[16:1],,8,,1h[8:1],8h[8:1],,1,8h[8:1],,
{24}
1,8,1,
{8}
8h[8:1],,
{1}
8bV27-3-6-4<5V36-2-7-1<8>1[4:9]`1>1b[4:9],,,
{16}
8h[8:1]/1h[16:1],,1,,8h[8:1],1h[8:1],,8,1h[8:1],,
{24}
8,1,8,
{8}
1h[8:1],,
{16}
7,5,6,5,6h[8:1],,4,5,3,5,4h[4:1],,5,,5,,3,4,2,4,3h[8:1],,5,4,6,4,5h[8:1],,4,,56,,
7,8,6,8,7h[8:1],,1,8,2,8,1h[4:1],,8,,8,,2,1,3,1,2,,8,1,7,1,8,,36,,45,,
7,5,6,5,7,,3,4,2,4,3h[8:1],,4,,25,,2,4,3,4,2,,6,5,7,5,6h[4:1],,5,,5,,
7,8,6,8,7,,2,1,3,1,2h[4:1],,1,,8,,1,8,
{24}
2,7,2,
{8}
7,1x-4b[8:1]`8x-5[8:1],,,,,
{16}
3bx/6bx,,,,2,3,4,5,1,2,3,4,8,1,2,3,
7,8,1,2,6,7,8,1,5,6,7,8,4,5,6,7,
3,4,5,6,2,3,4,5,1,2,3,4,8,1,2,3,
7,8,1,2,6,7,8,1,5bx,,,,1bx,,,,
2bx/7bx,,,,3,2,1,8,4,3,2,1,5,4,3,2,
6,5,4,3,7,6,5,4,8,7,6,5,1,8,7,6,
2,1,8,7,3,2,1,8,4,3,2,1,5,4,3,2,
6,5,4,3,7x,,7x,,1,8,2,7,1,8,27,,
6,5,7,5,6h[8:1],,3,5,4,5,2h[8:1],,4,,15,,2,4,3,4,2,,6,4,5,4,7h[8:1],,5,,57,,
6,5,7,5,6h[8:1],,3,5,4,5,3h[8:1],,4,,34,,2,8,3,8,1h[8:1],,7,8,6,8,7h[8:1],,8,,56,,
7,5,7,5,6,,3,5,3,5,1,,17,,26,,3,5,3,5,4,,6,5,7,5,8,,48,,13,,
2,8,3,7,4,,7,8,6,1,4,,25,,36,,
{24}
3,6,3,
{16}
6,4h[16:9],
{4}
5h[2:1],,,
{12}
3bx/7bx,,,4,6,5,6,4,5,5,6,4,6h[6:1],,7h[6:1],,8h[3:2],,,,,,,,7h[6:1],,6h[6:1],,5,,
{8}
,47,,6-2^5-8[8:5]/5,,2,3,4h[8:5],,,,,8h[8:3],,,
{16}
5,5,
{6}
8,8,7,6,7,6,5,3h[6:1],
{12}
4,5,
{8}
6x,6x-3[4:1],3x,3x-8-5[2:1],,1,,6,,4,4,3h[8:3],,,6,,5h[8:1],3h[8:1],
{12}
4,3,5,4,4,3,5,4,4,3h[6:1],,4h[6:1],,5,,
{8}
,56,45,3h[4:1]/4,,1h[4:1],,8,,7,7,
{4}
7-4[4:1],4>6[8:5],3h[8:3],,{8},4b,,
{12}
6,5,5,4,5,5,6,5,5,7,6,5,8,7,6,1,8,7,2,1,8,
{4}
3hx[8:3]/7,{16},,5,5,{8}1,2,2,3^6[4:1]/8,,7,7,7,{6}1bx/8bx,1bx/8bx,
{12}
1bx,8bx,
{16}
27,,3h[4:1],,,,6h[8:1],,4,,35,,24,,35,,27,,6,5,6h[4:1],,,,5,,,24,,,18,,56,,4,5,4h[4:1],,,,6,4,,28,,,3,6,78,,,6h[4:1],5h[16:3],,,,7,4,7,4,6,,,6,
{12}
1h[24:1],8,1,
{16}
8,,3h[8:1],4h[8:1],,2,5,4,6,5,7h[16:1],4h[16:1],6,5,7,4,5,,,5,
{12}
7,,7,
{16}
8,6,1,5,24,,35,,2h[8:1]/7h[8:1],,,,
{24}
4,5,,,,,7,8,,
{16}
6,1,
{24}
5,,,,4,5,3,4,,
{16}
25,,36,,47,,,,8,8,
{24}
1,2,3,7,6,5,4h[4:1],,,,,,5,6,7,8,1,2,
{16}
34,,34,,34,,,45,4/5h[16:3],,,4,6h[8:1],,5,7,4h[8:1],,8,,5h[4:1]/8h[4:1],,,,,47,36,2h[16:1],
{12}
4h[12:1],3h[12:1],6h[12:1],5,7,1,
{16}
1b/8b,,,,4h[16:1],6h[16:1],1,5,3,8,2h[16:1],4h[16:1],3,4,3,4,2h[16:1],,7,5,7,5,6h[16:1],,1,8,2h[32:1],7h[32:1],3h[32:1],5,4,5,3,5,4,6,2,1,3,5,4,6,1,8,4,6,5,7,
C,,,,,,E2,,,,5,4,5,4,5h[8:1],,C,,,,,,E8,,,,4,5,4,5,4h[8:1],,B6,,,,,,B3,,,,5,,4,5,4h[4:1],,,,6,,5,,4,,3,,5,,
C,,,,B2,,,,,,C/B6,,,,5,4,5h[8:1],,4h[8:1],,B5,,,,,,C/B3,,,,4,5,4h[8:1],,5,,E4/E6,,,,,,5,,3,,4,,5,,6,,4h[8:3],,6,,5,,5h[4:1],,,,3,6,4,5,4h[8:1],,
6^4[4:1],,,,,,E2,,,,2,4,3,4,3,4,3^5b[4:1],,,,,,E8,,,,7,5,6,5,6,5,
6-4[8:1],,,,,,2-4b[8:1],,,,7,,7,5,
{8}
6h[4:1],,3,3,4,6,5,E5,,5h[8:3]/C,,,4,,,45,,4h[8:3]/E5,,,5,,,
{1}
1w5[29.25#64:1]/8w4b[29.25#64:1],,
{4}
1x/8x,
3bx-7b[8:1]/6bx,{8}37,8^5[8:1],,{24}18,2,3,{4}4,6-2b[8:1]/3,{8}26,1^4[8:1],,{24}18,7,6,{4}5,
3-8b[8:1]/6,{8}36,7^4[8:1],,{24}78,1,2,{8}3,3,12,38,47,56,47,38,1x/2x,38,
{4}3/8-3[8:1],{8}58,4,4,35,2,1,2-5[8:1]/4,,25,6,6,57,8,1,
{16}
18,,3,4,3,,18,,6,5,6,,28,,3,4,2,,6,5,7,,2,1,3,,7,8,6-4b[8:1],,,,
{4}
1b/6b-1[8:1],{8}36,2^5b[8:1],,{24}21,8/E3,7/E4,{4}6/E5,8/3-8[8:1],{8}36,7^4b[8:1],,{24}78,1/E7,2/E6,{4}3/E5,
5/2-5[8:1],{8}25,6^1b[8:1],,{24}65,4/E7,3/E8,{8}2/E1,2,34,25,16,78,16,25,34,45,
6-1[8:1],4,36,2^5b[8:1],,{24}21,8/E3,7/E4,{8}6/E5,6,3-8[8:1]/4,5,36,7^4b[8:1],,{24}78,1/E7,2/E6,{8}3/E5,2,
{1}1V75V36[4:3]/Cf,{8}8,8,6,6,4,4,2,2,{8}8-4[2:1],,,C,,,,,8-4b[2:1],,,C,,,,,
{16}
2b/5b,,3,4,3,,45,,6,5,6,,47,,38,,
{8}
1/2>4[8:1],3,1-5b[8:1]/2,8,1/2-6[8:1],3,2/8b,,
{16}
47,,6,5,6,,47,,3,4,3,,25,,16,,
{8}
7-5b[8:1],8-4b[8:1],7,8,1-5[8:1],2-4[8:1],1,2,
{16}
8,,6,5,6,,28,,3,4,2,,15,,68,,57,,4,5,3,,6,5,7,,3,4,2b/6b,,,,
7b,5,6,4,5,3,1b,4,8,5,7,,36,,,,2b,4,3,5,4,6,8b,5,1,4,2,,63,,,,
1b,6,1,6,1bx,2bx,3bx,4bx,7,1,7,1,7,6,5,4,2,1,3,8,4,6,2,4,1,7,5,8,3,6,2,4,
{8}
1b-5b[2:1],,,C,,,,,1x-5[2:1],,,C,,,,,
{1}
1pp4b[4:5]*qq6[4:5],,
{16}
5-1[8:1],,,4,
{8}
5,2,3-7b[8:1],3,4,5,
{16}
6>3[8:1],,,5,
{8}
6,1<6b[8:1],2,3,4b,4,
{16}
8-4[8:1],,,1,
{8}
8,3,2-6b[8:1],2,1,8,
{16}
7>2[8:1],,,8,
{8}
7,4<7b[8:1],3,2,1b,8,
{16}
7-3[8:1],,,1,
{8}
7,4,5-1b[8:1],5,6,7,
{16}
8<5[8:1],,,5,
{8}
8,3>8b[8:1],4,5,6b,7,
{16}
6-2[8:1],,,5,
{8}
6,3,4-8b[8:1],4,5,6,
{16}
7<4[8:1],,,8,
{8}
7,2<7b[8:1],3,4,
{4}
5b-8[8:1],{1}E4/B4f/E5,{4},
{8}
4/5h[16:5],,,4h[16:5]/5,,,4h[16:7]/5,,,2h[8:3],,
{16}
,8h[8:3],
{4}
,6h[4:3],,,5x,
{16}
7,5,6,4,5,,2,4,1-3[8:1]*-4b[8:1],5,8,,,,,,8,4,7,5,6,,1,5,2-5b[8:1]*-6[8:1],4,3,,,,,,
{12}
8,8,2,2,4,4,6,6,8,8-4[16:1],2,2,
{384}Ch[1:0]/E1/E8,B8,A8/B1,B7,B3/B4,B5,E5,E4,A4,,,,,,,,,,,,,,,,,,,,,,,,,,,,,,,,,,,,,,,,,,,,,,,,,,,,,,,,,,,,,,,,,,,,,,,,,,,,,,,,,,,,,,,,
{4}
,
E
&inote_7=(234)
{1}
,
4bh[1:6]/5bh[1:6],,,,,,,,
{8}
4bh[8:7]/Cf,,,,,5b,,,5bh[8:7]/Cf,,,,,4b,,3b,
3bh[8:7]/Cf,,,,,5b,,,6bh[8:7]/Cbf,,,4b,,3b,,4b,
4bh[8:7]/Cf,,,,,5b,,,5bh[8:7]/Cf,,,,,4b,,4b,
{1}
,,1bV72-6-3-5>4V63-7-2-8>1<8b[4:9]`8b<8b[4:9],,,
{16}
1bh[8:1]/8bh[16:1],,8b,,1bh[8:1],8bh[8:1],,1b,8bh[8:1],,
{24}
1b,8b,1b,
{8}
8bh[8:1],,
{1}
8bV27-3-6-4<5V36-2-7-1<8>1b[4:9]`1b>1b[4:9],,,
{16}
8bh[8:1]/1bh[16:1],,1b,,8bh[8:1],1bh[8:1],,8b,1bh[8:1],,
{24}
8b,1b,8b,
{8}
1bh[8:1],,
{16}
7b,5b,6b,5b,6bh[8:1],,4b,5b,3b,5b,4bh[4:1],,5b,,5b,,3b,4b,2b,4b,3bh[8:1],,5b,4b,6b,4b,5bh[8:1],,4b,,5b/6b,,
7b,8b,6b,8b,7bh[8:1],,1b,8b,2b,8b,1bh[4:1],,8b,,8b,,2b,1b,3b,1b,2b,,8b,1b,7b,1b,8b,,3b/6b,,4b/5b,,
7b,5b,6b,5b,7b,,3b,4b,2b,4b,3bh[8:1],,4b,,2b/5b,,2b,4b,3b,4b,2b,,6b,5b,7b,5b,6bh[4:1],,5b,,5b,,
7b,8b,6b,8b,7b,,2b,1b,3b,1b,2bh[4:1],,1b,,8b,,1b,8b,
{24}
2b,7b,2b,
{8}
7b,1bx-4b[8:1]`8bx-5b[8:1],,,,,
{16}
3bx/6bx,,,,2b,3b,4b,5b,1b,2b,3b,4bb,8b,1b,2b,3b,
7b,8b,1b,2b,6b,7b,8b,1b,5b,6b,7b,8b,4b,5b,6b,7b,
3b,4b,5b,6b,2b,3b,4b,5b,1b,2b,3b,4b,8b,1b,2b,3b,
7b,8b,1b,2b,6b,7b,8b,1b,5bx,,,,1bx,,,,
2bx/7bx,,,,3b,2b,1b,8b,4b,3b,2b,1b,5b,4b,3b,2b,
6b,5b,4b,3b,7b,6b,5b,4b,8b,7b,6b,5b,1b,8b,7b,6b,
2b,1b,8b,7b,3b,2b,1b,8b,4b,3b,2b,1b,5b,4b,3b,2b,
6b,5b,4b,3b,7bx,,7bx,,1b,8b,2b,7b,1b,8b,2b/7b,,
6b,5b,7b,5b,6bh[8:1],,3b,5b,4b,5b,2bh[8:1],,4b,,1b/5b,,2b,4b,3b,4b,2b,,6b,4b,5b,4b,7bh[8:1],,5b,,5b/7b,,
6b,5b,7b,5b,6bh[8:1],,3b,5b,4b,5b,3bh[8:1],,4b,,3b/4b,,2b,8b,3b,8b,1bh[8:1],,7b,8b,6b,8b,7bh[8:1],,8b,,5b/6b,,
7b,5b,7b,5b,6b,,3b,5b,3b,5b,1b,,1b/7b,,2b/6b,,3b,5b,3b,5b,4b,,6b,5b,7b,5b,8b,,4b/8b,,1b/3b,,
2b,8b,3b,7b,4b,,7b,8b,6b,1b,4b,,2b/5b,,3b/6b,,
{24}
3b,6b,3b,
{16}
6b,4bh[16:9],
{4}
5bh[2:1],,,
{12}
3bx/7bx,,,4b,6b,5b,6b,4b,5b,5b,6b,4b,6bh[6:1],,7bh[6:1],,8bh[3:2],,,,,,,,7bh[6:1],,6bh[6:1],,5b,,
{8}
,4b/7b,,6b-2^5-8b[8:5]/5b,,2b,3b,4bh[8:5],,,,,8bh[8:3],,,
{16}
5b,5b,
{6}
8b,8b,7b,6b,7b,6b,5b,3bh[6:1],
{12}
4b,5b,
{8}
6bx,6bx-3b[4:1],3bx,3bx-8-5b[2:1],,1b,,6b,,4b,4b,3bh[8:3],,,6b,,5bh[8:1],3bh[8:1],
{12}
4b,3b,5b,4b,4b,3b,5b,4b,4b,3bh[6:1],,4bh[6:1],,5b,,
{8}
,5b/6b,4b/5b,3bh[4:1]/4b,,1bh[4:1],,8b,,7b,7b,
{4}
7b-4b[4:1],4b>6b[8:5],3bh[8:3],,{8},4b,,
{12}
6b,5b,5b,4b,5b,5b,6b,5b,5b,7b,6b,5b,8b,7b,6b,1b,8b,7b,2b,1b,8b,
{4}
3bhx[8:3]/7b,{16},,5b,5b,{8}1b,2b,2b,3b^6b[4:1]/8b,,7b,7b,7b,{6}1bx/8bx,1bx/8bx,
{12}
1bx,8bx,
{16}
2b/7b,,3bh[4:1],,,,6bh[8:1],,4b,,3b/5b,,2b/4b,,3b/5b,,2b/7b,,6b,5b,6bh[4:1],,,,5b,,,2b/4b,,,1b/8b,,5b/6b,,4b,5b,4bh[4:1],,,,6b,4b,,2b/8b,,,3b,6b,7b/8b,,,6bh[4:1],5bh[16:3],,,,7b,4b,7b,4b,6b,,,6b,
{12}
1bh[24:1],8b,1b,
{16}
8b,,3bh[8:1],4bh[8:1],,2b,5b,4b,6b,5b,7bh[16:1],4bh[16:1],6b,5b,7b,4b,5b,,,5b,
{12}
7b,,7b,
{16}
8b,6b,1b,5b,2b/4b,,3b/5b,,2bh[8:1]/7bh[8:1],,,,
{24}
4b,5b,,,,,7b,8b,,
{16}
6b,1b,
{24}
5b,,,,4b,5b,3b,4b,,
{16}
2b/5b,,3b/6b,,4b/7b,,,,8b,8b,
{24}
1b,2b,3b,7b,6b,5b,4bh[4:1],,,,,,5b,6b,7b,8b,1b,2b,
{16}
3b/4b,,3b/4b,,3b/4b,,,4b/5b,4b/5bh[16:3],,,4b,6bh[8:1],,5b,7b,4bh[8:1],,8b,,5bh[4:1]/8bh[4:1],,,,,4b/7b,3b/6b,2bh[16:1],
{12}
4bh[12:1],3bh[12:1],6bh[12:1],5b,7b,1b,
{16}
1b/8b,,,,4bh[16:1],6bh[16:1],1b,5b,3b,8b,2bh[16:1],4bh[16:1],3b,4b,3b,4b,2bh[16:1],,7b,5b,7b,5b,6bh[16:1],,1b,8b,2bh[32:1],7bh[32:1],3bh[32:1],5b,4b,5b,3b,5b,4b,6b,2b,1b,3b,5b,4b,6b,1b,8b,4b,6b,5b,7b,
Cf,,,,,,E2f,,,,5b,4b,5b,4b,5bh[8:1],,Cf,,,,,,E8f,,,,4b,5b,4b,5b,4bh[8:1],,B6f,,,,,,B3f,,,,5b,,4b,5b,4bh[4:1],,,,6b,,5b,,4b,,3b,,5b,,
Cf,,,,B2f,,,,,,Cf/B6,,,,5b,4b,5bh[8:1],,4bh[8:1],,B5f,,,,,,Cf/B3,,,,4b,5b,4bh[8:1],,5b,,E4f/E6,,,,,,5b,,3b,,4b,,5b,,6b,,4bh[8:3],,6b,,5b,,5bh[4:1],,,,3b,6b,4b,5b,4bh[8:1],,
6b^4b[4:1],,,,,,E2f,,,,2b,4b,3b,4b,3b,4b,3b^5b[4:1],,,,,,E8f,,,,7b,5b,6b,5b,6b,5b,
6b-4b[8:1],,,,,,2b-4b[8:1],,,,7b,,7b,5b,
{8}
6bh[4:1],,3b,3b,4b,6b,5b,E5f,,5bh[8:3]/Cf,,,4b,,,4b/5b,,4bh[8:3]/E5f,,,5b,,,
{1}
1bw5b[29.25#64:1]/8bw4b[29.25#64:1],,
{4}
1bx/8bx,
3bx-7b[8:1]/6bx,{8}3b/7b,8b^5b[8:1],,{24}1b/8b,2b,3b,{4}4b,6b-2b[8:1]/3b,{8}2b/6b,1b^4b[8:1],,{24}1b/8b,7b,6b,{4}5b,
3b-8b[8:1]/6b,{8}3b/6b,7b^4b[8:1],,{24}7b/8b,1b,2b,{8}3b,3b,1b/2b,3b/8b,4b/7b,5b/6b,4b/7b,3b/8b,1bx/2bx,3b/8b,
{4}3b/8b-3b[8:1],{8}5b/8b,4b,4b,3b/5b,2b,1b,2b-5b[8:1]/4b,,2b/5b,6b,6b,5b/7b,8b,1b,
{16}
1b/8b,,3b,4b,3b,,1b/8b,,6b,5b,6b,,2b/8b,,3b,4b,2b,,6b,5b,7b,,2b,1b,3b,,7b,8b,6b-4b[8:1],,,,
{4}
1b/6b-1b[8:1],{8}3b/6b,2b^5b[8:1],,{24}2b/1b,8b/E3,7b/E4,{4}6b/E5f,8b/3b-8b[8:1],{8}3b/6b,7b^4b[8:1],,{24}7b/8b,1b/E7,2b/E6,{4}3b/E5f,
5b/2b-5b[8:1],{8}2b/5b,6b^1b[8:1],,{24}6b/5b,4b/E7,3b/E8,{8}2b/E1f,2b,3b/4b,2b/5b,1b/6b,7b/8b,1b/6b,2b/5b,3b/4b,4b/5b,
6b-1b[8:1],4b,3b/6b,2b^5b[8:1],,{24}2b/1b,8b/E3,7b/E4,{8}6b/E5f,6b,3b-8b[8:1]/4b,5b,3b/6b,7b^4b[8:1],,{24}7b/8b,1b/E7,2b/E6,{8}3b/E5f,2b,
{1}1bV75V36b[4:3]/Cf,{8}8b,8b,6b,6b,4b,4b,2b,2b,{8}8b-4b[2:1],,,Cf,,,,,8b-4b[2:1],,,Cf,,,,,
{16}
2b/5b,,3b,4b,3b,,4b/5b,,6b,5b,6b,,4b/7b,,3b/8b,,
{8}
1b/2b>4b[8:1],3b,1b-5b[8:1]/2b,8b,1b/2b-6b[8:1],3b,2b/8b,,
{16}
4b/7b,,6b,5b,6b,,4b/7b,,3b,4b,3b,,2b/5b,,1b/6b,,
{8}
7b-5b[8:1],8b-4b[8:1],7b,8b,1b-5b[8:1],2b-4b[8:1],1b,2b,
{16}
8b,,6b,5b,6b,,2b/8b,,3b,4b,2b,,1b/5b,,6b/8b,,5b/7b,,4b,5b,3b,,6b,5b,7b,,3b,4b,2b/6b,,,,
7b,5b,6b,4b,5b,3b,1b,4b,8b,5b,7b,,3b/6b,,,,2b,4b,3b,5b,4b,6b,8b,5b,1b,4b,2b,,6b/3b,,,,
1b,6b,1b,6b,1bx,2bx,3bx,4bx,7b,1b,7b,1b,7b,6b,5b,4b,2b,1b,3b,8b,4b,6b,2b,4b,1b,7b,5b,8b,3b,6b,2b,4b,
{8}
1b-5b[2:1],,,Cf,,,,,1bx-5b[2:1],,,Cf,,,,,
{1}
1bpp4b[4:5]*qq6b[4:5],,
{16}
5b-1b[8:1],,,4b,
{8}
5b,2b,3b-7b[8:1],3b,4b,5b,
{16}
6b>3b[8:1],,,5b,
{8}
6b,1b<6b[8:1],2b,3b,4b,4b,
{16}
8b-4b[8:1],,,1b,
{8}
8b,3b,2b-6b[8:1],2b,1b,8b,
{16}
7b>2b[8:1],,,8b,
{8}
7b,4b<7b[8:1],3b,2b,1b,8b,
{16}
7b-3b[8:1],,,1b,
{8}
7b,4b,5b-1b[8:1],5b,6b,7b,
{16}
8b<5b[8:1],,,5b,
{8}
8b,3b>8b[8:1],4b,5b,6b,7b,
{16}
6b-2b[8:1],,,5b,
{8}
6b,3b,4b-8b[8:1],4b,5b,6b,
{16}
7b<4b[8:1],,,8b,
{8}
7b,2b<7b[8:1],3b,4b,
{4}
5b-8b[8:1],{1}E4/B4f/E5,{4},
{8}
4b/5bh[16:5],,,4bh[16:5]/5b,,,4bh[16:7]/5b,,,2bh[8:3],,
{16}
,8bh[8:3],
{4}
,6bh[4:3],,,5bx,
{16}
7b,5b,6b,4b,5b,,2b,4b,1b-3b[8:1]*-4b[8:1],5b,8b,,,,,,8b,4b,7b,5b,6b,,1b,5b,2b-5b[8:1]*-6b[8:1],4b,3b,,,,,,
{12}
8b,8b,2b,2b,4b,4b,6b,6b,8b,8b-4b[16:1],2b,2b,
{384}Chf[1:0]/E1/E8,B8,A8/B1,B7,B3/B4,B5,E5,E4,A4,,,,,,,,,,,,,,,,,,,,,,,,,,,,,,,,,,,,,,,,,,,,,,,,,,,,,,,,,,,,,,,,,,,,,,,,,,,,,,,,,,,,,,,,
{4}
,
E
