&title=限りなく灰色へ(25時、ナイトコードで&鏡音リン)
&artist=すりぃ
&first=-1.32
&des=布丁罐头
&lv_5=13
&inote_5=(108)
{4},,,
{24}2^5[4:1],,6,1,,,
5-1[4:1],,,,,,7x,,,7x,,,,,,,,,8-6^7-4[2:1],,8,1,,1,
8,,,,,,2x,,,2x,,,,,,,,,3-5v7[4:1],,2,4,,,
7^2[4:1],,,,,,6x,,,6x,,,,,,,,,4qq4pp4[2:1],,4,5,,5,
4,,,,,,7x,,,7x,,,,,,,,,7-3-5[4:1],,4,6,,,
5-1[4:1],,,,,,2x,,,2x,,,,,,,,,1-3^4-2-6[2:1],,1,7,,7,
1,,,,,,8x,,,8x,,,,,,,,,6q2[4:1],,7,5,,,
2^7[4:1],,,,,,3x,,,3x,,,,,,,,,5-2-6[4:1],,5,4,,4,
6-8-4[4:1],,,,,,5x,,,5x,,,,,,,,,,,,,,,
4/5-1[2:1],,,,,,,,,3h[8:3],,,,,,,,,,,,,,,
8/1-5[2:1],,,,,,,,,7h[8:3],,,,,,,,,,,,,,,
5/3-7[2:1],,,,,,,,,5h[8:3],,,,,,,,,,,,,,,
1/6-8-5[4:1],,,,,,5-1-3[4:1],,,4h[8:3],,,,,,,,,,,,,,,
8-3[8:1],,,7,,,6-1[8:1],,,5,,,4h[4:1],,,,,,,,,,,,
4-7[8:1],,,3,,,2-6[8:1],,,1,,,8h[4:1],,,,,,,,,,,,
8-3[8:1],,,7,,,6-1[8:1],,,5-8-3[4:1],,,4,,,,,,,,,,,,
4^6[8:1],,,3,,,2v4[8:1],,,1,,,28,,,8,7x,6x,5x,,4,5,,3,
4-8[8:1],,,4,,,24,,,2,,,2-6[8:1],,,2,,,28,,,8,,,
78,,,56,,,3p2[4:1]/4<2[4:1],,,12,,,34,,,,,,,,,,,,
2-6[8:1],,,13,,,2^5[8:1],,,1,,,28,,,,,,17,,,68,,,
5z1[4:1]/7z3[4:1],,,,,,57,,,,,,,,,2x/4x,,,35,,,4h[8:1]/6h[4:1],,,
,,,1b-4b[8:1],,,1b,,,8-5[4:1],,,8,,,,,,4,,,3,,,
1<4[4:1]/4,,,2,,,18,,,8x,,,8-4[8:1],,,,,,78,,,6,,,
5/6<3[4:1],,,56,,,,,,4>6[4:1],,,4,,,,,,5,,5,5,,,
4/6-3[2:1],,,2-7b[8:1]/4,,,6,,,2,,,,,,,,,,,,,,,
6^3[2:1],,,,,,,,,3,,,,,,,,,,,,,,,
3^6[2:1],,,,,,,,,6,,,,,,,,,,,,,,,
6^3<8[1:1],,,,,,,,,3h[8:3],,,,,,,,,,,,,,,
8>8>8b[2:1],,,,,,,,,,,,,,,,,,Cfh[4:1],,,,,,
{8}8b<8>8>8<8<8>8>8>
8>8<8<8>8>8<8<8b[2:15],,,3xh[8:3],,,A8,,
5x,,,5xh[8:2],,,A8,,2x,,,2xh[8:3],,,
A8,,6x,,,6xh[8:3],,,
A8f,,5x,,,5x-2[8:1],,,
A8,,3x,,,3x-6[8:1],,A3,
A8,,7x,,,7x-3[8:1],,,
A8,,2x,,,B2,,,Cfh[4:1],,
,,,,,,,,B8,B7,B6,B5,B3/B4,B1/B2,B8/B7,B6/B5,
Ch[1:1],,,,,,,,E1,E8/E2,E3/E7,E4/E6,
A7/A8/E8/B7/B8/D8f,A1/A2/E2/B1/B2/D2f,A6/A5/E6/B6/B5/D6f,A4/A3/E4/B4/B3/D4f,
{1}Ch[1:1],{24}E1,,E2,B2,,E8,B7,,B2,B3,,B7,B6,,,B5/E5/B4,,,E7/B6/B7,,,B8/E1/B1,,,
{8}Ch[1:1]/E3/B2/B3,,,,,E2,E3,E4,{24}E5,,,,,,,,,,,,27,,,3,4,5,6,,4,5,,,
3x-1-7[4:1]/6x,,,6,,,7-5[8:1]/3,,,7,,,,,,,,,7,,7,4,,5,
2x-4-6[4:1],,,7,,,6-8[8:1]/2,,,6,,,,,,,,,6,,6,1,,1,
6xv8-2[4:1],,,4,,,6/2^4[8:1],,,2,,,,,,,,,3,,3,5,,4,
7xv5^3[4:1],,,1,,,7/3^1v7b[4:1],,,3,,,,,,,,,3x,,3x,5x,,5x,
3x-1[8:1],,4,3,,4,3,,,7x-5[8:1],,8,7,,8,7,,,1,,1,4,,4,
2x-4[8:1],,1,2,,1,2,,,6x-8[8:1],,5,6,,5,6,,,3,,3,1,,3,
6x^8[8:1],,6,4,,4,6,,,2x^4[8:1],,2,8,,8,2,,,6,,5,6,,5,
7x^5[8:1],,7,1,,1,7,,,3x^1[8:1],,3,5,,5,3,,8,7,,7,6,,
6^5^4^3^2b[4:1]/2^1^8^7^6[4:1],
