&title=BURNIN’RUBBER
&artist=大久保博
&first=0.02
&des=↘
&lv_5=14
&inote_5=(142)
{1},
{16}
5h[4:1],,,,3qq4[4:1],,,,,,6,,6,,,,
4h[4:1],,,,7qq1[4:1],,,,,,3,,3,,,,
8h[4:1],,,,5<3[4:1],,,,,,5x,,6x,,7xh[4:1],,,,
4b-2[16:1],,,6-8[16:1],,,5-1[16:1],,,5x,,,,,
2xh[2:1]/4xh[8:1],,,,3pp8[4:1],,,,,,1,,1,7x,,,
7xh[2:1]/5xh[8:1],,,,6qq1[4:1],,,,,,8,,8,2x,,,
3h[8:1]/4>1[8:1],,,,4<7[8:1]/5,,,,4,2,,2,8h[4:3],,,,
1b,,,,2b,,,,3bw7[8:1],,,,3b,,,,
1x,5h[8:1],,3,8h[8:1],,2-6-4[4:1],6h[16:3],,,2,,7,,8,,
8x,4h[8:1],,6,1h[8:1],,7-3-5[4:1],3h[16:3],,,7,,1b,,,,
2,4h[8:1],,3,8h[8:1],,5V38[4:1],1h[16:3],,,5,,7,,6,,
5,,5,,2h[8:1],,4,3,4-8[8:1],3,5,,4,6,,7,
7x,1h[8:1],,4,2h[8:1],,1-5[8:1],5,,5,1,,3,4,3,4,
2x,8h[8:1],,5,7h[8:1],,8-4[8:1],4,,4,8,,6,5,6,5,
8x,2h[8:1],,4,1h[8:1],,3-7[8:1],8,,8>3[8:1],3b,,,8,,,
5xh[8:1],,2xh[8:5],,{32}4x,3x,{16}4x,3x,4x,{32}5x,6x,{16}5x,6x,5x,{32}6xb,7xb,{16},,,
3-6[8:1],,3,,3,1,,,8xh[16:3],,,7h[16:3],,,6,,
6-3[8:1],,6,,6,8,,,1h[16:3],,,2h[16:3],,,3,,
3-6[8:1],,34,,3,1,,,8xh[16:2],,,17,,,,,
6-3[8:1],,56,,6,8,,,1h[8:1],,8x,,1b/8b,,,,
2-5[8:1],,34,,2,1,,1,5,,5,6,,6,7,,
7-4[8:1],,56,,7,8,,8,4,,4,3,,3,2,,
2-6[8:1],,34,,2,1,,1-6b[16:3],5-2b[8:1],,,,,,,,
Chf[4:3],,,,,,,,,,,,,,,,
7,,7h[8:1],,5,6,,6,4,5,3,,3,4,,4,
2,,2h[8:1],,4,3,,3,5,4,6,,6,5,,5,
7,,7h[8:1],,8,6,,6,2,4>1[8:1],3,,5,4,,7,
7,,1b,,8x,2,8,3x,7,3,6x-1[8:1],4,5x,3,,,
2,,4/3h[8:1],,8,2h[8:1],,7,1-5[8:1],6,2,,1x,8,,7,
7,,5/6h[8:1],,1,7h[8:1],,2,8-4[8:1],3,7,,8x,1,,2,
2,,34,,6,5-1[8:1],,4,7,5,6x,,6p4[8:3],,,,
2h[16:5],,,,,,,,2x-6b[8:1],,,,,,,,
7b/8b,,1-5[8:1],,8,,1b/2b,,,,3h[8:1],,5-7[8:1],4,,3,5,,4-1[8:1],,3,,2h[4:1]/4,,,,8b,,4,,,,
1b/2b,,8-4[8:1],,1,,7b/8b,,,,6h[8:1],,4,5,,,
3,,3,,24,,6,5,7-3b[8:1],5,6,,1b,,,,
2b/8b-6[8:1],,3v8[8:1],,18,,3b,,,,2h[8:1],,4-7[8:1],3,,2,4,,3-1[8:1],,8,,2h[4:1]/3,,,,8b,,4,,,,
7b/1b-3[8:1],,6v1[8:1],,81,,6b,,,,7,,7h[1:1]/8,,,,
{32}5x,4x,,,5x,,,,4x,3x,4x,,,,5x,6x,5x,,6x,,5x,,,,4xb,3xb,{16}2xb,,,
1b/8b,,2,4,3,,6,5,,5,7,,7h[8:1],,1,1,8,8,2,4,3-8[8:1],,6V47[4:1],6,,,6,,1,,2,,
38,,4,5,,6,2,,47,,8,1,,2,6,,
3x/7x-4[8:1],7x,2,,7,,2-8[8:1],2,6-3b[8:1],,2,,6b,,,,
8b/1b,,7,5,6,,3,4,,4,2,,2h[8:1],,8,8,1,1,7,5,6-1[8:1],,3V52[4:1],3,,,3,,8,,7,,
1,6,1,6,2,5,1,7,4,5,2,8,3q6[4:3],,,,1h[8:5],,,,,,,,,,,,8b,,,,
{16}
7h[4:1],,,,5>2[8:1],,,,5,,8b,,8,1,,,
2h[4:1],,,,4<7[8:1],,,,4,,1b,,1,8,,,
7h[4:1],,,,5>2[8:1],,,,5-1[8:1],6,,6,5,,,,
{32}
2x,3xh[32:3],,,7x,6xh[32:3],,,3x,4x,3xh[4:1],,,,6x,5x,6x,,5x,,6x,7xh[32:3],,,3xb,4xb,5xb,,,,,,
{16}
8<5[4:1],,,,5-1[8:1],,,,1,,2,,2,8,,8,
1>4[4:1],,,,4-8[8:1],,,,8,,7,,7,1,,1,
8w4[8:1],,,,,,,,1p5[8:1]/7q3[8:1],,,,,,,,
1b/4,,1,,2b/8,,2,,3b/4-1[8:1],,3,,4b/8b,,,,
2h[4:1]/7-3[8:1],,{24}4,5,6,{16}7b,,1V35[4:1],,,,6,,7,,8,,
4h[4:1]/1-5[8:1],,{24}6,7,8,{16}1b,,2V48[4:1],,,,7,,6,,5,,
4h[4:1]/7-3[8:1],,{24}2,1,8,{16}7b,,5<2[4:1],,,,2,,3,,4,,
5-3[8:1],5,8,,5-8[8:1],,6,2,5,,1,,27,27,,,
{24}
4-8[8:1]/5,3,2,7,6,5,{16}1b/4b,,2xV46[4:1],,,,7,,8,,1,,
{24}
2-6[8:1]/6,1,8,5,4,3,{16}2b/7b,,8-5-3[4:1],,,,5,,2,,1,,
{24}
4/8-4[8:1],1,2,5,6,7,{16}3b/8b,,2-5-8[4:1],,,,5,,7,,6,,
{32}
1x,2x,,,6x,5x,,,3x,4x,3xh[4:1],,,,6x,5x,6x,,5x,,6xh[8:1],,,,3xb,4xb,5xb,,,,,,
{16}
7-4[8:1],,,,3-8[8:1],,2,,7-4[8:1],,,6,2-5[8:1],,3,,
8-3[8:1],,,,4-7[8:1],,5,,8-3[8:1],,,1,5-2[8:1],,4,,
7-2[8:1],,,,3-6[8:1],,4,,8-5[8:1],,,7,2-5[8:1],,1,,
6-1[8:1],,,,3-6[8:1],,4,,8-4[8:1],,1x,,2b/8b,,,,
2-5[8:1],,,,6-1[8:1],,7,,2-5[8:1],,,3,7-4[8:1],,6,,
1-6[8:1],,,,5-2[8:1],,4,,1-6[8:1],,,8,4-7[8:1],,5,,
2-7[8:1],,,,6-3[8:1],,5,,1-4[8:1],,,2,7,,8<5[16:3],,
,5>2[16:3],,,2<7[16:3],,,7<4[16:3],,,4,,,1,,,
6-1[8:1],,4,7,3V52[16:3],,2,,8-5[8:1],,7,,8,1,,1,
6-8[8:1],,4,7,3V51[16:3],,2,,8-4[8:1],,7,,8,2,,2,
5-8[8:1],,3,6,4V25[16:3],,2,,7-2[8:1],,6,,7,3,,3,
5-7[8:1],,4,6,3V51[16:3],,1,,8-3[8:1]*-5[8:1],,7,,8b,,,,
3-8[8:1],,5,2,6V47[16:3],,7,,1-4[8:1],,2,,1,8,,8,
3-1[8:1],,5,2,6V48[16:3],,7,,1-5[8:1],,2,,1,7,,7,
4-1[8:1],,6,3,5V74[16:3],,7,,2-7[8:1],,3,,2,6,,6,
{32}
3x,4xh[8:1],,,7x,6xh[16:3],,,,,2x,3xh[16:7],,,,,6x,5x,6x,,5x,,6x,,5xb,4xb,,,,,,,
{32}
1b,2,3,4,5,6,8b,7,6,5,4,3,1b,2,3,4,1-5b[8:1],,,,8,,,,1b/7b,,,,,,,,
8b,7,6,5,4,3,1b,2,3,4,5,6,8b,7,6,5,8-4b[8:1],,,,1,,,,8b/2b,,,,,,,,
1b,2,3,4,5,6,8b,7,6,5,4,3,8b,1,2,3,1-5[8:1],,,,8,,,,1b/7b,,,,,,,,
{16}
8x-6[8:1],8x,,5x,5x-1[8:1],,3x,,5x>2[8:1],4x,,,5x/7x,,6x,,
{32}
1xb,8,7,6,5,4,8b,1,2,3,4,5,1b,8,7,6,5/8-4[8:1],4,3,2,16,,,,7b/8b,,,,7,,,,
8xb,1,2,3,4,5,1b,8,7,6,5,4,8b,1,2,3,4/1-5[8:1],5,6,7,83,,,,2b/1b,,,,2,,,,
1xb,8,7,6,5,4,8b,1,2,3,4,5,1b-5[8:1],8,7,6,5/8-4b[8:1],4,3,2,17,,,,8b,,,,,,,,
{16}
2,12,,56,,24,,68,,13,,45,6>3[8:1],5,7,,D1f,
