&title=Limen
&artist=Silentroom
&first=0
&des=Impliciter
&lv_5=13
&inote_5=(95)
{1},
{1}4V28>1V75[4:22]/5p4[4:15],,,,,,
{4}46,46,43,43,
{1}4h[8:4]/8,
{8}45,,45,2h[8:1],{16}4-1[12:1],3,{8},46,7,
{8}42,,4v3[12:1]/6,{16}8v7[12:1],8,{8}4qq1[4:1],8,4,,
{48}4z8[6:1],5,6,7,,,{8}3,4/6<2[16:3],,4V62[16:3]/6,,4V68[8:1],,
{4}4p2[4:1],4,4h[8:1],41,
{8}4-7[16:1]/5,,43,2h[8:1],{16}4-1[16:1],3,,,45,6,,6,
{8}45,2<7[12:1],4v5[12:1]/3,2v1[12:1],4-8-6[16:3],2,4,,
{48}4V61[6:1],3,2,1,,,{8}6,4/3>7[16:3],,4q5[4:1]/3,,4>2[12:1],,
{8}4q8[8:1],,4/2h[16:1],3,4-2[12:1]/1-5[12:1],,1/4,,
{8}4-8[12:1]/3,,45,6h[8:1],{16}4-1[12:1],5,{8},46,8,
{8}42,7>2[12:1],4v3[12:1]/6,7v6[12:1],4qq1[4:1],7,4,,
{48}4z8[6:1],5,6,7,,,{8}3,4/6<2[16:3],,4V62[16:3]/6,,4<7[12:1],,
{8}4>1[12:1]/1,3,4/7,5,4h[8:1]/8-5[12:1],,48,,
{8}4-7[12:1]/5,,43,2h[8:1],{16}4-1[12:1],3,,,45,6,,6,
{8}45,2<7[12:1],4-8-5-7[8:2]/3,2,4,2,4h[8:1],,
{48}4V61[6:1]/6,3,2,1,,,{8}5,4/3>7[16:3],,4h[8:1],,{16}4>2[12:1],26,,26,
{8}1-5[8:1]/4,,1/4,6,4-8[12:1]/7-5[12:1],,,,
{1}4V28>1V75[4:6],,
{16}46,5,,5,46,3,2h[8:1]/5,,4-6[16:1],3-1[16:1],5,2,4,3,,,
{16}24,3,,3,42,5,3/6h[8:1],,4-2[16:1],5-7[16:1],3,6,4,5,,,
{16}46,5,,5,46,3,2/7h[8:1],,4>2[16:1],5<7[16:1],3,6,4,5,,,
{16}24,3,,3,42,5,1h[8:1]/6,,4<6[16:1],3>1[16:1],5,2,4,3,,,
{16}46,5,,5,46,7,2/8h[8:1],,4-2[16:1],6-8[16:1],3,7,4,6,,,
{16}24,3,,3,42,1,6/8h[8:1],,4-6[16:1],2-8[16:1],5,1,4,2,,,
{1}6h[8:7]/4<2[8:5],
{1}2h[8:7]/4>6[8:5],
{1}5h[8:15]/4q6<4[8:13],
{1},
{4}4/3V15[8:4],4,4,4,
{4}4/7V51[8:4],4,4,4,
{8}4/2,3h[16:1],4,5h[16:1],4,2h[16:1],4,6h[16:1],
{16}4,3,6,5,4,2,{24}7,6,5,{16}4,2,{32}8,7,6,5,{4}4/1h[4:1],
{16}4-1[12:1],,3,5,4-6[12:1],,8,,4-1[12:1]/7-3[12:1],,8,8,4,,,,
{16}4pp5[8:1],,5,3,4-8[12:1],,2,,4<7[12:1]/1>4[12:1],,1,1,4,,,,
{32}4,3,2,1,6,7,8,1,4,3,2,1,5,6,7,8,{16}4v1[12:1],,3,5,4,,,,
{8}4<7[12:1]/1-5[12:1],,41,,4-1[12:1]/6-3[12:1],,46,,
{16}4V68[8:1],,5,3,4v2[12:1],,2,,4-6[16:1]/7-5[16:1],,8,8,4,,,,
{16}4-2[12:1],,3,5,4-8[12:1],,6,,4-7[12:1]/2-5[12:1],,1,1,4,,,,
{32}4,3,2,1,6,7,8,1,4,3,2,1,5,6,7,8,{16}4p8[12:1],,3,5,4,,,,
{8}4v7[12:1]/1q5[12:1],,41,,4/8<5[12:1],,{32}4,3,2,1,8,7,6,5,
{8}4-1[12:1]/8b-4[12:1],,4V68[8:1]/8,,4>1[12:1]/3,,{16}4pp6[8:1]/6,6,,,
{8}4-8[12:1]/1>4[12:1],,14,{32},,7,6,{16}45,,,2,4,3,6h[32:1],6h[32:1],
{32}4,3,2,1,6,7,8,1,4,3,2,1,5,6,7,8,{16}4qq2[8:1],,3,5,4,,,,
{4}4-1[12:1]/3-8[12:1],43,4-7[12:1]/5-8[12:1],45,
{16}4/2-5[12:1],,3,3,42,,6,,4-1[12:1]*-8[12:1],6,3,5,4,,,,
{16}4/6-3[12:1],,5,5,46,,2,,4p8[12:1]*v7[12:1],5,3,6,4,,,,
{16}4,3,6,5,4,3,6,5,4,2,7,5,4,2,7,5,
{16}4,2,8,6,4w8[8:3],2,8,6,{2}4,
{4}4,4V28>1V75[1:3],4,4,
{4}4,4,4,4,
{4}4,4,4,4,
