&title=PRIMITIVE LIGHTS
&artist=TAG
&first=0.03
&des=Asahisrza
&lv_5=14+
&lv_7=66666
&inote_1=
&inote_5=(205){1},
{32}2,3,4-8[2:1],,
{8},,2,2,,1,,7/5-1[8:3],,,6,6,,8,7,
{8}6<2<6[2:1],,,4,4,,3,,3>7[4:1],,,4,4,,5,5,
{8}1-5[8:1],1,6-2[8:1],6,3-8[8:1],3,7-4[8:1],7,1-4[8:1],1,6-2[8:1],6,5,5,1,1,
{16}4,8,4,8,3,7,3,7,2,6,2,6,1,5,1,,
{8}68,68,51,24,,28,37,4bqq5<1[2:1]b/6bpp5>1[2:1]b,{1},
{8}5/6h[8:1],4,6h[8:1],3,5/6h[8:1],4,6h[8:1],3,
{8}5/7h[8:1],3,6h[8:1],2,5/7h[8:1],3,6h[8:1],2,
{8}5/7h[8:1],3,5h[8:1],1,5/7h[8:1],3,5h[8:1],1,
{8}5/7h[8:1],3,5h[8:1],1,57,57,46,35,
{8}2h[8:1]/4,6,3h[8:1],7,2h[8:1]/4,6,3h[8:1],7,
{8}2h[8:1]/4,6,4h[8:1],8,2h[8:1]/4,6,4h[8:1],8,
{8}3/4,1,5/6,8,2/4,1,57,8,{8}12,2,34,3,56,6,78,7,
{8}3h[8:1]/4,5,3h[8:1],6,3h[8:1]/4,5,3h[8:1],6,
{8}2h[8:1]/4,6,3h[8:1],7,2h[8:1]/4,6,3h[8:1],7,
{8}2h[8:1]/4,6,4h[8:1],8,2h[8:1]/4,6,4h[8:1],8,
{8}2h[8:1]/4,6,4h[8:1],8,24,24,35,46,
{8}5/7,5/7,{16}8,1,8,,{8}2/4,2/4,{16}1,8,1,,
{8}4/6,4/6,{16}8,1,8,,{8}3/5,3/5,{16}1,8,1,,
{8}4x/8x,4x/8x,1-5[8:1],2,{16}3,,,,4,6,4,6,
{8}3b/5bx,1bx/2b,7b/5bx,2b/4bx,,,,,
{4}E1/B1,E3/B3,B5/E5,E7/B7,
{8}8v3[8:1],,8/4,,1h[4:1],,3,3<7[8:1],,2,1,,1-5[8:1],8v3[8:1],1,8,
{8}1v6[8:1],,1/5,,8h[4:1],,6,6>2[8:1],,7,8,,8-4[8:1],1v6[8:1],8,1,
{8}8v3[8:1],,8/4,,1h[4:1],,3,3<7[8:1],,2,1-5[8:1],,6,6,7,84,
{8},7,6,4,3,21,38,47,{16}6x/5x,4,3,2,81,7,6,5,48,7,6,5,1,8,7,6,
{8}5-8[8:1]/1-5[8:1],,15,,4h[4:1],,3-7[8:1],3,,2,1,,{8}2,6,
{8}1>5[8:1],5,{16}1x/5x,6,7,,{4}8x<4[8:1],{16}8x/4x,3,2,,
{4}1xq5[8:1]b,{16}1x/6x,7,8,,{4}1xp5[8:1]b,{16}1x/4x,3,2,,{4}1x,
{16}78,,78,,61,,25,,3v8[8:1]/4-8[8:1],,,,43,,,,
{16}21,,12,,38,,47,,5v2[8:1]/6-2[8:1],,,,56,,,,
{16}81,,18,,27,,36,,4-8[8:1]/5-1[8:1],,,,4>7p1[4:3]b/5<2q8[4:3]b,,,,
{1}45,{4}8/3,4h[8:1]/5h[8:1],1/6,4h[8:1]/5h[8:1],
{16}2,5,4,5,1,6,4,6,1-6[8:1],,1,,
{8}7-3[8:1],7,,2,2h[8:1],,{16}6,4,5,3,6,4,5,3,
{16}7,4,5,4,8,3,5,3,8-3[8:1],,8,,
{8}2-6[8:1],2,,7,7h[8:1],,{16}3,5,4,6,3,5,4,6,
{16}2,5,4,5,1,6,4,6,1-6[8:1],,1,,
{8}7-4[8:1],7,,1,1h[8:1],,46,6v1[8:1]/4v1[8:1],,64,
{8},28,2,17,8,82,3,47,
{16}5,4,3,2,1/8,7,6,5,4/8b,3,2,1,8/4b,37,26,15,
{8}8q4[8:1]b/4q8[8:1],,
{4}48,
{16}3,4,2,,6,5,7h[8:1],,,,2,,27,,,,
{8}3,24,7,68,{32}1b/5h[8:1]x,2,3,4,{8},48,48,
{32}8b/4h[8:1]x,7,6,5,{8},{32}2b/5b,3,4,,8b,7,6,,
{8}1bx,2b/8b,3b/7b,4bq1[8:1]b/6bp1[8:1]b,,,,,
{16}2h[16:1]/8h[16:1],,,{16}3h[16:1]/7h[16:1],,
{16}4h[16:1]/6h[16:1],,,{16}3,5,2,4,3x,1x,2,8,
{16}1h[16:1]/7h[16:1],,,{16}2h[16:1]/6h[16:1],,
{16}3h[16:1]/5h[16:1],,,{16}4,3,2,1,8/7<5[8:1],,,,
{8}7-3[8:1],{16}3x,3,{8}7,1x-4[0.14##0.2]*-6[0.14##0.2],
{16}1,B2/B8,{8}E4/E7,
{16}5xw1[8:1]b,,5,,5,,,,3x/7x,,,,
{8}37,37,26,26,{16}2,3,4,5,1,2,3,4,8,1,2,3,7,8,1,2,
{48}3/8b,,,4,,,5,,3b,6,,,7,,,8,5b,,1,,,2,,,
{12}5h[12:1],1,,{16}4h[12:1],,8,,
{32}6x-1[0.22##0.12],,,,,,2x-5[0.22##0.12],,,,,,7x-3[0.22##0.12],,,,,,4x-1[0.22##0.12],,,,,,8h[1:0],,,,,,8,,,,,,
{32}8x-4[0.22##0.12],,,,,,3x-8[0.22##0.12],,,,,,7x-4[0.22##0.12],,,,,,1x-5[0.22##0.12],,,,,,7h[1:0],,,,
{32}7x-3[0.22##0.12],,,,,,4x-1[0.22##0.12],,,,,,8x-5[0.22##0.12],,,,,,2x-6[0.22##0.12],,,,,,8,,,,,,1h[1:0],,,,,,
{32}1x-6[0.22##0.12],,,,,,4x-8[0.22##0.12],,,,,,7x-3[0.22##0.12],,,,,,2x-5[0.22##0.12],,,,,,1b,,,,
{32}8x-3[0.22##0.12],,,,,,2x-5[0.22##0.12],,,,,,7x-3[0.22##0.12],,,,,,4x-1[0.22##0.12],,,,,,8h[1:0],,,,,,7,,,,,,
{32}1x>5[0.22##0.22],,,,,,5x<1[0.22##0.22]b,,,,,,1x-3-5[0.22##0.22],,,,,,5x,,,,,,6h[1:0]b,,,,
{32}6x,,,,,,6h[4:1]x,,,,,,1x,,,,,,1xh[4:1],,,,,,4h[1:0]x,,,,,,4h[4:1]x,,,,,,
{32}8,,,,,,8h[16:1],,,,,,5,,,,,,5h[16:3],,,,,,3,,,,
{16}12,,3,4,3,,1h[16:1],,4-8[8:1],,1h[16:1],,4,,,,
{16}7,,6,5,6,,8h[16:1],,5-1[8:1],,8h[16:1],,5,,,,
{16}2,,3,4,3,,1-6[8:1],,4-8[8:1]b,,1,,4,,,,
{16}7,,6,5,6,,8-6[8:1],,5-2[8:1]b,,8,,5,,,,
{8}6<1[12:1],6,4p8[12:1],4,5q1[12:1],5,3>8[12:1],3,
{8}4-8[12:1],4,5-1[12:1],5,6-2[12:1],6,4,4,
{8}8,8,1,1,{16}2,8,2,8,3,7,3,7,
{32}3b,4,5,6,7,8,1,2,3x,4,5,6,7,8,1,2,
{32}7b/3x,6,5,4,3,2,1,8,7x,6,5,4,3,2,1,8,
{8}7x/3h[4:1]x,,C1,,,B8,B2,B4,,E2,B7,B5,1,1,B8/B7,1,
{8}2x/6h[4:1]x,,C1,,,E2,B7,B5,,B8,B2,B4,8,8,1,1,
{8}2,E7,3,E5,,E2,E3,E4,,
D8,D7,D6,
4,3,2,1,
{8}7,E3,6,E5,,E8,E7,E6,,D2,D3,D4,B4/B3,6,B1/B2,8,
{8}3,2/4,3,1/2,3,2/6,3,2/4,
{16}3,,2/8,,3,,2/5,,3,4,3,,4/5,,5/6,,
{8}7,6/8,7,2/6,7,4/6,7,6/8,
{16}7,,4/6,,7,,1/6,,7,8,7,,1/8,,1/2,,
{8}3b/4b,5,34,2,34,5,34,2,5b/6b,7,56,4,56,7,56,4,
{4}7h[8:3]/1b-5[8:1]b,,8b-4[8:1]b/2h[8:3],,
{8}6h[8:3]/1b,1b,1b,1b,,,
{16}6,1,5,2,4,,3,5,2,,6,5,7,,3,4,2h[8:1],,6h[8:1],,,,35,,35,,,,
{16}35,,8,,46,,1,,
{16}1,,6,5,7,,3,4,2,,6,5,7h[8:1],,3h[8:1],,,,28,,28,,,,
{16}28,,4,,17,,5,,5,,2,1,4,,7,8,5,,2,1,4h[8:1],,8h[8:1],,,,57,,{8}57,,
{8}1,1>4[8:1],,1,,8,7,6,5,4,3,2,
{12}1b,1,1,7b,7,7,4b,4,4,{8}4,
{8},3-8[8:1]/7-4[8:1],,37,,1s5[6:1]/5,,1,6-2[8:1],,6,4,,
{8}4,4,5,5,6v1[8:1]/3v8[8:1],,63,,2-5[8:1]/7-4[8:1],,27,
{8},18,27,36,4/5,
{16}3,6,3,6,2,7,2,7,
{16}1x/8x,,,27,,,36,,4,5,4,5,4,5,4,5,
{16}3x/6x,,,36,,,27,,1,8,1,8,1,8,1,8,
{16}2,6,2,6,2,6,2,6,2,6,2,6,2,6,2,6,
{16}3,7,3,7,3,7,3,7,3,7,3,7,3,7,3,7,
{16}4,8,4,8,4,8,4,8,4,8,4,8,4,8,4,8,
{8}3b/7b,2b/6b,1b/5b,4b>2-5v7[4:1]b/8bh[2:1],,,,,
{32}1,2,3,,,,,,7,6,5h[8:3],,,,,,2,3,4h[8:1],,,,,,
{32}6,7,8h[8:2],,3,2,1h[8:1],,{8},2/7,{32}27,E3/E7,B3/B6,B4/B5,E5f,,,,
{8}1h[8:3]x/8h[8:3]x,,,,
{16}3,4,2,8,3,6,5,7,1-6[8:1]b,6,1,,{8}7-3[8:1]b,7,,
{16}1,,1h[8:1]b,,,,{16}6,4,6,4,5,3,5,3,
{16}6,5,7,1,6,3,4,2,8-3[8:1]b,3,8,,
{8}1-5[8:1]b,1,,{16}8,,E8,E7,E6,,
{8}24,2v7[8:1]b/4v7[8:1]b,,24,
{8},86,1,28,3,52,6,47,
{16}8bx/5x,1,2,3,4/8b,1,2,3,4/1b,2,3,4,1b/5b,26,37,48,
{8}5v2[8:1]/1v6[8:1]b,,1/5,,
{16}3,4,3,,6v1[8:1]b,5,6,,,,2b,,2bh[8:1],,,,
{8}6,57,2,13,{32}8b/4h[8:1]bx,7,6,5,{8},15,15,
{32}1b/5h[8:1]bx,2,3,4,{8},{32}4b/7b,6,5,,1b,2,3,,
{8}8bx,1b/7b,2b/6b,3bq8[8:1]b/5bp8[8:1]b,,,,,
{16}1h[16:1]/7h[16:1],,,{16}2h[16:1]/6h[16:1],,
{16}3h[16:1]/5h[16:1],,,{16}3,5,3,5,4,6,4,6,
{16}3h[16:1]/7h[16:1],,,{16}2h[16:1]/6h[16:1],,
{16}1h[16:1]/5h[16:1],,,
{16}15,26,37,48,1,2,3,4,
{16}15,,15,,26,,26,,26,3,4,5,6,7,8,1,
{8}2q6[8:1]/6q2[8:1],,26,,1h[16:1]x/5h[16:1]x,1h[16:1]/5h[16:1],4h[16:1]/8h[16:1],3/7,
{16}37,26,15,,15,26,37,,4,3,2,1,5,6,7,8,
{16}2,3,4,5,1,8,7,6,54,3,2,1,87,6,5,4,
{16}3,,2,1,2,,8-4[8:1],,2-5[8:1]b,,8,,2,,,,
{16}6,,7,8,7,,1h[16:1],,5-1[8:1]b,,1h[16:1],,5,,,,
{16}2,,3,4,3,,1-6[8:1],,4-8[8:1]b,,1,,4,,,,
{16}7,,6,5,6,,4h[16:1],,8-4[8:1]b,,4h[16:1],,8,,,,
{32}1b,2,3h[1:0],,,,2b,3h[1:0],4,,,,7b,6,5h[1:0],,,,6b,5h[1:0],4,,,,8h[1:0],,,,,,1,,,,,,
{32}2bh[1:0],3,4h[1:0],,,,3b,4h[1:0],5,,,,8bh[1:0],7,6h[1:0],,,,7b,6h[1:0],5,,,,1h[1:0]b,,,,
{32}4b,5h[1:0],6,,,,3bh[1:0],4,5,,,,2b,3h[1:0],4,,,,1bh[1:0],2,3,,,,8,,,,,,1h[1:0],,,,,,
{32}6h[1:0]b,5h[1:0],4,,,,7b,6,5h[1:0],,,,8bh[1:0],7h[1:0],6,5,
{32}1b,8,7,6,5-1[12:1]b,4,3,2,1,8,7,6,5x/C1f`B5`B1,
&inote_7=
