&title=FLY
&artist=Tsutchie feat.AZUMA RIKI
&first=0
&des=FRY
&lv_5=13+
&inote_5=(104)
{16},,,,,,,,,,,,,,,,
||
blank
{16},,,,,,,,,,,,,,,,
{16},,,,,,,,,,,,,,,,
||
intro
{16}1-4[4:2],,,,,,,,,,,,7^2[4:3],,,,
{16},,,,,,,,,,,,,,,,
{16}5-8[4:2],,,,,,,,,,,,3^6[4:3],,,,
{16},,,,,,,,,,,,,,,,
{16}6-3[4:2],,,,4,,,,4,,,,2^7[4:3],,,,
{16}5,,,,5,,,,4,,,,4,,,,
{16}2-7[4:2],,,,8,,,,8,,,,6^3[4:3],,,,
{16}1,,,,1,,,,8,,,,8-5[8:1],,,,
||
A1-1
{16}28,,2,,3h[8:1],,5,,6>3[8:1],,4,,2,,,,
{16}3h[8:1],,1,,4h[8:1],,2,,3,5,,5,4-7[8:1],,,,
{16}1,,1,,2h[8:1],,4,,7<4[8:1],,1,,3,,,,
{16}1h[8:1],,3,,2h[16:2],,8,,5,6,,6,4-1[8:1],,,,
||
A1-2
{16}7,,7,,6h[8:1],,4,,3<6[8:1],,5,,7,,,,
{16}6h[8:1],,8,,5h[8:1],,7,,6,4,,4,5-2[8:1],,,,
{16}8,,8,,7h[8:1],,5,,2>5[8:1],,8,,6,,,,
{16}8,4,6,2h[16:3],4-8[16:6],,,,2,3,4,,7-2[8:1],6,5,,
||
A1-3
{16}7,,,,3/8h[8:1],,5,,1h[8:1]/6^3[8:1],,4,,2,,,,
{16}3h[8:1],,1,,6h[8:1],,8,,4,6,,6,5-2[8:1],,,4,
{16}7,,7,,3/8h[8:1],,5,,7^4[8:1],,3,,1,,,,
{16}2h[8:1],,8,,3-7[16:6],5,4,6,2,,1,,8-5[8:1],,,,
||
A1-4
{16}28,,2,,1h[8:1]/6,,4,,8h[8:1]/3^6[8:1],,5,,7,,,,
{16}8h[8:1],,6,,1h[8:1],,3,,5,3,,3,4-7[8:1],,,,
{16},,1,8,1,,2,3,2,,5,4,5,,7,6,||solewa!
{16}7,5,7,4,6-2[16:6],4,5,3,7,,8,,1-4[8:1],8,8,,
||
B1-1
{16}1,,7,,45,,2,4,3^6[8:1],,2,1,3,,8,,
{16}6,,4
,,2/3,1,8,7,5,,2,4,3-8[8:1],5,4,,
{16}34,,5,,7h[8:1]/8,,5,,2h[8:1]/1<6[8:1],,4,,1,,5,,
{16}7,,2,1,4,6,5,7,18,,6,4,5-8[8:1],3,4,2,
||
B1-2
{16}5,,2,,54,,7,5,6^3[8:1],,7,8,6,,1,,
{16}3,,5,,7/6,8,1,2,4,,6,8,5-2[8:1],3,4,,
{16}56,,7,,1h[8:1]/2,,5,,8h[8:1]/7>2[8:1],,4,,7,,5,,
{16}3,,4,2h[8:1],,7,8,6,4,4,5,3,8-5[8:1],1,1,,
||
A2-1
{16},,,2,4,3,5,3,5,4,6,4,6,5,7,5,
{16}6,4,7,4,5,3,8,3,4h[8:1],,2,,8-3[8:1],,6,,
{16},,6,6,3,4,2,5,4h[8:1],,6,5,7,4,5,4,
{16}6,5,7,4,8,1,7,2,4,3,5,4,6-1[8:1],,5,,
||
A2-2
{16},,3,8,5h[8:1],,6,1,4h[8:1],,1,6,3,8,5h[8:2],,
{16}3,,4,,5,,6,6,5,7,8,6,3-8[8:1],5,4,,
{16},,6,,2,8h[8:1],,3,7,1,4h[8:1],,2,8,5h[8:1],,
{16}7,8,{24}6,5,6,3,4,3,{16}5,5,3,1,5,6,8-5[8:1],4,3,,
||
A2-3
{16},,1h[8:1],,4,2,,7,5h[8:1],,4,,5,7,2,4,
{16}1,8,5,6,4,5,3,4h[16:2],,5,4,,5-2[8:1],4,6,,
{16},,7h[8:1],,5,6,7,6,3,4,3,2,5h[16:2],,4,,
{16},,6h[8:1],,7,5,4,6,2,4,3,1,4-7[8:1],5,2,,
||
A2-4
{16},3,3,3,7,5,6,{32}3,4,{16}2h[8:1],,6h[8:1],,8,4,1,5,
{16},3,4,2,5,1
,8,2,7,5,6,4,5-2[8:1],3,2,1,
{16}8,7,6,5,2,5,1,8,4,7,2,5,1h[4:1],,,,
{16}6,8,5,4,1,3,7,5h[8:1],,6,8,4,3-8[8:1],1h[16:3],,,
||
B2-1
{16}3,,6,6,2,4,1,7,5<8[8:1],,7,1,5,,2,,
{16}41,,6,5,47,8,1,2,4,,6,8,4-7[8:1],3,5,,
{16}42,,3,3,6,5,8,5,6>3[8:1],1,4,1,6,,2h[8:1],,
{16}8,,6,4h[8:1],,5,3,4,2h[16:3],,6,4,8-5[8:1],1,1,,
||
B2-2
{16}8,,2,2,6,8,5,3,1<6[8:1],,3,5,1,,4,,
{16}35,,7,8,61,5,4,3,1,,6,4,8-3[8:1],1,7,,
{16}68,,7,7,2,5,8,5,2<7[8:1],1,4,1,2,,6h[8:1],,
{16}4,7,5,6,1,7,3,1,82,37,46,,5-8[4:3],,,,
||
outro
{16}3,,,,3,,,,3,,,,3^6[4:3],,,,
{16}8,,,,8,,,,1,,,,1-4[4:3],,,,
{16}7,,,,7,,,,7,,,,7^2[4:3],,,,
{16}4,,,,4,,,,5,,,,5-2[4:3],,,,
{16}1,,,,8,,,,7,,,,6^3[4:3],,,,
{16}3,,,,2,,,,1,,,,8-5[4:3],,,,
{16}5,,,,4,,,,3,,,,2^7[8:6],,,,
{16}7,,,,6,,,,5,,,,{32},4h[32:10],,,,,,,
{32},,,3h[32:12],,,,,,,,,,,,2h[128:234],
{32},,,,,,,,,,,,,,,,
{16},,,,,,,,,,,,,,,,
{128},,,,,,,,,,,,,,,,,,,,,,,,,,,,,,,,,,,,,,1b,,,,,,,,,,,
{16},,,,,,,,
