&title=アイヴイ
&artist=ツミキ/月村手毬
&first=0.005
&des_1=我打不过夜莺落雨
&des_2=我打不过夜莺落雨
&des_3=我打不过夜莺落雨
&des_4=我打不过夜莺落雨
&des_5=我打不过夜莺落雨*都是tag惹的祸
&lv_5=13+
&des_6=我打不过夜莺落雨
&des_7=我打不过夜莺落雨
&des=我打不过夜莺落雨
&inote_5=(178)
{1},
{1},
{8}4,,3,,4,4,,5,,6,,7,7,,8,,
{8}6,,5,5,,4,,3,,2,,2,,1,8,7,
{8}7-4[4:1],,1h[4:1],,,,5,6,
{8},47,,3,2,,1xh[32:1]`8xh[32:1],,
{16}5b/7b,,,6b/5b,,,5b/4b,,2,1,3,1,2,,7,8,
{16}7,,56,,1,8,1,,4b/2b,,,3b/4b,,,4b/5b,,
{16}7,8,6,8,7,,2,1,2,,43,,8,1,8,,
{16}3b/4b,,,5b/7b,,,1b/8b,,2,4,3,4,2,,8,1,
{16}7,7,,4,5,3,6,,1b/8b,,,2b/7b,,,3bq8[8:5]/6b,,
{1}7xh[4:3],
{8}1x>5[4:3],,,,,,,6,
{8},6h[8:3],,,4,,,8,
{8}8z4[4:3],,,,,,,3h[8:3],
{8},,,7h[16:1],,,1,,
{8}2h[4:1]/4<8[4:3],,,,,,,3,
{8},3h[8:3],,,5,,,,
{16}8,,,17,,,2V46[4:2]/6,,,,,,,,8h[4:1],,
{8},,,{16}1,7,2,6,3,5,1b-5[8:1],,,,
{8}18,,7<4[8:1],,3,3,2-5[8:1],,
{8}12,,8,,5,6,7/4-1[8:1],,
{8}6-2[8:1],,3h[4:1],,1,8,1/7-4[8:1],,
{8}2-5[8:1],,6,,3,2,1/8-6[8:1],,
{8}2-4[8:1],,1-5[8:1],,3,,7-4[8:1],,
{8}87,,1,,4,3,2/5-1[8:1],,
{8}45,3,2,8-4[8:1],,78,,6h[4:1],
{16},,4,,35,,3,4,2,,8,1,7,2,6,3,
{16}4/5h[4:1],,,,6,,6h[4:1],,,,7,,7,,1,8,
{16},,8h[4:1],,,,2,,37,,4/6-3[8:1],,,,,,
{16}1h[4:1],,,,2,,2h[4:1],,,,3,,4,,4-8[8:1],,
{16},,5,,,,7,,68,,7,,26,,3,4,
{8}2,,2,5,1,,17,,
{8}1,,18,{16}2,2,4,,7,7,5,6,3,8,
{8}1b,,18,18,27,27,36,3b-5s1[8:5]/6b-4z8[8:5],
{1},
{8}2b-6[8:1]/7b,,2-4-8[4:1]/8,8,2,5,,1-5-2[4:1]/6-8[8:1],
{8},16,,,,8,17,26,
{8}3/5-1[8:1],,45,2-6[8:1],,28,7,5-2[8:1]/7<4-8b[4:1],
{8},57,,,,78,16,25,
{8}3-7[8:1]/4,,35,6<1[8:1],,56,,2-4[8:1]*-6[8:1],
{8},2,,7-5[8:1]*-3[8:1],,7,,{24}4xb,3x,2x,
{8}1xpp4b[8:3]*qq6b[8:3],,1b,,,,,{8}35,
{12}26,,17,{8},28,{16}37,,3,6,2,7,1,8,
{8}7b-3[8:1]/2b,,7-5-1[4:1]/1,1,7,4,,8-4-7[4:1]/3-1[8:1],
{8},83,,,,28,73,64,
{8}5-1[8:1],4-2[8:1],5,4,8,7,61,{24}1b<6[8:1],2,3,
{8}4,1bpp4[8:3],,1,,,7,7h[4:1],
{8},4,35,2,18,7,68,5,
{8}34,34,{16}1b,,7,7,3,,8h[8:1],,2,6,3,5,
{8}4xhb[8:3],,,5h[8:3],,,6h[8:3],,
{8},7h[8:3],,,4h[8:1],3h[8:1],2h[8:1],1h[8:1],
{8}8,7h[4:1],,6,5h[4:1],,3,2h[4:1],
{16},,1,,1,,3,4,3,,2,,34,,2,,
{16}8hb[4:1],,,,,,2,1,2,,38,,47,,5h[4:1]/6,,
{16},,8,,17,,6,,7h[4:1]/8,,,,1,,8,8,
{16}2,,1/3h[4:1],,,,4,,35,,6,,78,,1hb[4:1],,
{16},,5,,37,,8,1,8,,27,,36,,45,,
{1}Ch[2:7]/E3,E1,E7,,
{16}4xh[4:1],,,,,,,,E7,,,C,,,E3,,
{8},3xh[2:1],,,,,,,
{16}5xh[4:1],,,,,,,,E7,,,C,,,E3,,
{8},6xh[2:1],,,,,,,
{16}4xh[4:1],,,,,,,,E7,,,C,,,E3,,
{8},2xh[2:1],,,,,,,
{16}5xh[4:1],,,,,,,,E7,,,C,,,E3,,
{16}8x,,,7x,,,6xh[4:1],,,,,,,,,,
{4}3/A5,A6/3,A7/3,A8/3,
{4}3/B5,B6/3,B7/3,B8/3,
{4}7/A4,7/A3,7/A2,7/A1,
{8}7/E5,,7v6-4b[8:3]/E3,1xhb[8:3],,,,,
{4}2b-5b[8:1],2xb/8b-4b[8:1],8xb/1b-5b[8:1],1xb/7b,
{8}2xb/8xb,2xb/8xb,2xb/8xb,2xb/8xb,{16}1b,7xb,8b,7xb,6b,7xb,5b,7xb,
{48}A4bf/D4bf,E4bf,A3bf,E3bf,A2bf,E2bf,A1bf/D2bf,,,,,,{32}8xbw4b[8:1],7xb,6xb,5xb,{8},,,,2b>8b[16:5],
{8},2b/5hb[4:1],,,,1,2-6[8:1]/8,3,
{8}4>1[8:1],,45,7-4[8:1],,8-2-4[16:3]/7,1,5v8[8:1]*q1[8:1]/8,
{8},5,,,,2,34,5,
{8}4/6qq4q8[16:5],,36,1>4[8:1],,1,,5-1[8:1]/7-4[8:1],
{8},57,,5<8[8:1]/2>5[8:1],,25,,{24}4xb,3,2,
{4}1pp2[16:3],1b/6hb[2:1],{32}D1,D8,D7,D6,D5,D4,D3,D2,{8}E1,7,
{12}78,,56,{8},35,{16}2h[8:1]/4,,1,2,8,3,7,2,
{8}8xb-4[8:1]/1,,2/8<5[8:1],2,8,4-8[8:1],,4>6[16:5]/6,
{8},1h[4:1],,,,5,6-2[8:1]/4,7,
{8}8-3[8:1],7-4[8:1],8,7,3,2,15,{24}5b>2[8:1],6,7,
{8}8,5b-1[8:1],,5b,,28,37,46,
{8}35,2,18,7,68,5,34,2,1-5[8:1]/8,7,1/6-2[8:1],7,4-1[8:1]*-7[8:1]/6,,4,,
{32}8b,7,6,5,4,3,2,1,8pp1[16:3],7,6,5,4,3,2,1,8b,,,,,,,,D8,D7,D6,D5,D4,D3,D2,D1,
{4}E8f,{16}6xb,,1,8,1h[8:1],,3h[8:1],,5h[8:1],,7h[8:1],,
{8}E4,,E3,,E6,E7,,D4,,D3,,B7,E1/E2,,Ch[4:1],,
{1},E
