&title=業 -善なる神とこの世の悪について-
&artist=光吉猛修 VS 穴山大輔
&first=0.1
&des=Blackbriar
&lv_5=14+
&des_5=Blackbriar
&inote_5=
(190){4},,,{16},,{32},8/1,7/2,6/3,
{4}4b/5b,{16}4,5,3,6,2,7,1,8,{4}Cf/B2/B8/B4/B6,
{32}8/1,7,{16}6,{32},2/1,3,4,{4}5,{32}1/8,2,{16}3,{32},7/8,6,5,{4}4,
{32}6b/3b,2/7,{16}8/1,{32},1b/8b,2/7,3/6,{4}4/5,{16}2-6[0.4737##0.1579]/8-4[0.4737##0.1579],,,6/4,,,{8}8b/2b,
{24},,,,,,1/8<1[0.6316##0.3158],2/7<1[0.6316##0.2632],3/6>1[0.6316##0.2105],4/5>1[0.6316##0.1579],,,,,,,,,8/1,7,6,5,,,,8,
7,6,5,4,{4}3bw7[0.5526##0.1974],{16},,,3b,,,,,1-4[0.2368##0.1184],
,,1/6-3[0.2368##0.1184],,,{8}6/2-7[0.2368##0.1184],{16},2/5-8[0.2368##0.1184],,,5/2-6[0.2368##0.1184],,,2/7-3[0.2368##0.1184],
,,{8}7/1w5[0.2368##0.1184],{16},1b,,,,,,,,,1,2,
{6}3b,4,5,6,7,8,
{12}1,2,3,4,5,6,7,{96}8,,,,,,,1,,,{32}2,3,4,5,6,7,8,1,2,3,
{1}4bw8[2.2105##0.1579],
{16}3,4-8[0.8684##0.1579],{8}2,{16}5,4,{8}6,{16}3,4,{8}2,{4}4b/Cf/B6/B2,
{8}7x<4[0.4737##0.3158],2x<7[4:1],,2/7pp2[2:1],,,3,4,
5,6,7,8,1x>5[0.4737##0.3158],5xV31[0.6316##0.3158],,1/B6/B5,
{4}B8/B7,{24}8,7,6,5pp8[2:1],,,,,,{8}B2/B1,{4}B3/B4,
{8}5,4,3,2,1,8/4,7/3,2/6,
5/1,8V61[16:3]/4V25[16:3],,8/4,,,8,7,
6,5,4,3-7[8:1],3,2-6[8:1],2,1-5>1[4:1],
{2}1,{16}8,7,6,5,4,3,2,1,
{8}8-4[8:1],7,6,5,4,3,2,1,
{4}8<6[4:1],6>4[4:1],4>1[4:1],1<6[4:1],
6>2[4:1],2<5[4:1],{2}5>8[16:3],
{24}7,6,5,4,3,2,{16}1,8,7,6,{12}5,4,3,2,{24},{8}1,
{6}8b-4[0.2105##0.1053],1-6[0.2105##0.1053],{24},{8}5b,{6}7b-2[0.2105##0.1053],4-1[0.2105##0.1053],{24},{8}8b,
{6}6b-2[0.2105##0.1053],8-3[0.2105##0.1053],{24},{8}5b,{16}4,5,3,6,2,7,1,8,
{6}2bq6[0.2105##0.1053],5q1[0.2105##0.1053],{24},{8}4b,{16}3bq7[0.2105##0.1053],,,1p5[0.2105##0.1053],,,{8}4b,
{4}4b-2[8:1]*-1[8:1],4b-6[8:1]*-7[8:1],4bw8[8:1]*-8[8:1],4b,
{24}4bx,3,{12}2,{24}8bx,7,{8}6,{24}4,5,6,7bx,8,{12}1,{24}6bx,5,{8}4,{24}1,2,3,
4bx,5,{12}6h[4:1],{24}7bx,8,{8}1h[24:5],{24}5,4,3,2,1,8,7,6,5,4,3,2,1,8,7,
{6}6b-3[0.2105##0.1053]/2b-7[0.2105##0.1053],6/2,{24},{8}6/2,{6}6-1[0.2105##0.1053]/2-5[0.2105##0.1053],6/2,{24},{8}8bh[8:7],
{4}2b-4[8:1],2bv5[8:1],2bV86[8:1],2b,
3bh[32:1]/C/B7/B3,6bh[32:1]/C/B6/B2,2bh[32:1]/B8/C/B4,7bh[32:1]/B1/C/B5,
{16}4,6,3,6,2,6,1,6,8,6,7,6,5,6,4,6,
{8}3b<6[8:1],3,2,1,8>3[8:1],8,7,6,
5<8[8:1],5,4,3,2>5[8:1],2,1,8,
7b-3[8:1],7,6,5,4-8[8:1],4,3,2,
1-5[8:1],1,8,7,6-2[8:1],6,5,4,
3b/4b,2/5,1/6,8/7,{16}7,5,6,4,5,3,4,2,
{8}3,2,1/5,8,7/3,6,5/1,4,
3/7,2,1/5,8,{16}7,8,6,1,5,2,4,3,
1,2,8,3,7,4,6,5,{8}4,3,2,1,
8h[2:1],7,6,5,4h[2:1],3,2,1,
{24}8b,7,6,5,4,3,2,1,8,7,6,5,4/8b,7,6,5,4,3,2,1,8,7,6,5,
4,5,4,5,4,5,3,6,3,6,3,6,2,7,2,7,2,7,1,8,1,8,1,8,
{8}1bw5b[0.4737##0.1579],,,1b,{16},,,,6/2,7/3,4/8,5/1,
{8}2b-5[0.4737##0.1579]/6b-1[0.4737##0.1579],,,6b/2b,{32},,,,,,,,3,4,5,6,7,8,1,2,
{8}3bv1[0.4737##0.1579]/7bv5[0.4737##0.1579],,,7b/3b,{16},,,,4/8,3/7,2/6,1/5,
{8}4/8-4[0.4737##0.1579],{16},,,,8b,1,2,3,4,5,6,7,8,1,
{8}2v1[0.4737##0.1579]/7v8[0.4737##0.1579],7/2,,7b/2b,{16},,,,3,4,3,4,
{8}3-7[8:1],3,,6,,6,{16}5,4,3,2,
{8}1-4[0.4737##0.1579]*-6[0.4737##0.1579],1,,1b,{16},,,,4-2[0.4737##0.1579],5,3,6,
{8}4,5,,5/1,{16}2,6,2,6,3,7,3,7,
{8}3,8/4,{16},,4,8,3,7,2,6,1,5,8,4,
{12}7b,7b,7bh[#0.3405609],(170)3b,3b,3bh[#0.3843155],(150)7b,7b,7bh[#0.5619049],(140)3b,3b,3bh[#0.1428604],
(120){4}Cf/B1/B5/B7/B3,{16},,,,,,,,4,8,2,6,
(130){32}3b,4,,,{8}7,{32}2,1,,,{8}5,{32}3,4,,,8,7,,,1,2,{16}3,5,6,
7,4,3,2,,8,6,4,2,5,7,1,3,6,8,2,
(140){4}4b,{24}7,1,6,2,5,3,{8}4,{24}1,8,2,7,3,6,4,{48},{16}5,
{8}6,{16}3,4,2,6,5,7,3,4,1,6,5,8,3,5,
(150)1b,8,7,6,{24}5,4,3,2,1,8,{16}7,2,3,4,5,8,7,6,
{24}3b,4,3,4,2,5,{16}2,1,8,7,6,5,4,5,4,6,5,6,
{4}1b,{12}5/3,5/3,6/2,6/2,7/1,7/1,8,{24},,7,6,
{8}5,{16}8,1,{12}2,3/5,4/6,{24}7,8,1,2,3,4,{16}5,6,7,8,
(160){24}4b,3,2,1,8,7,{16}4,6,4,6,{24}3,5,3,5,3,5,{16}2,8,2,8,
(170)1,6,1,6,{24}2,5,2,5,2,5,{16}3,4,3,5,4,5,4,5,
(180)3,6,3,6,2,7,2,7,1,8,1,8,2,7,3,6,
(190){24}4,5,6,7,8,1,2,3,4,5,6,7,8/5,4,3,2,1,8,7,6,5,4,3,2,
{4}5b/1b-5[0.6316##0.1579],3/7-3[0.6316##0.1579],1,7,
8/1-4[0.6316##0.1579]*-6[0.6316##0.1579],2/1-3[0.6316##0.1579]*-5[0.6316##0.1579],1,1,
4V28[0.6316##0.2368]/8V64[0.6316##0.2368],4v6[0.5526##0.2368]/8v2[0.5526##0.2368],{2}8/4,
{4}3/4w8[0.6316##0.2368],7/8w4[0.5526##0.2368],4/C,C,
{24}8,7,6,5q8[0.4737##0.4737],,,{4}5/3-8[0.6316##0.1579],{8}1,2,{4}3,
{24}1,2,3,4p1[0.4737##0.4737],,,{4}4/6-1[0.6316##0.1579],{8}8,7,{4}6,
{24}8-5[0.6316##0.1579],7,6,5,,,8-3[0.6316##0.1579],1,2,3,,,{8}8/2,1,{4}8,
{24}1-4[0.6316##0.1579],2,3,4,,,1-6[0.6316##0.1579],8,7,6,,,{8}1/7,8,{4}1,
8>8>1[2:1],8h[8:5],{8},,,4-1[24:23],
{16},,,,,,,,1,8,2,7,3,6,{8}4>4>3[8:5],
,,{4}4h[8:5],{8},,,8-5[24:23],
{16},,,,,,,,5,4,6,3,7,2,{8}8,
{32}1b,2,3,4,5,6,7,8,1,2,3,4,5,6,7,8,B1,B2,B3,B4,B5,B6,B7,B8,B1,B2,B3,B4,B5,B6,B7,B8,
{4}B1/Cf,{16},,,,,,,,7-4[8:1],8,1,2,
{8}7/3w7[0.4737##0.2368],,,3,{16},,,,2-5[8:1],1,8,7,
{8}2/6w2[0.4737##0.2368],,,6,{16},,,,4,5,4,5,
{8}3/6h[8:3],,,3,{16}2,7,1,8,2,7,1,8,
2h[16:1]/6h[16:1],,,2h[16:1]/6h[16:1],,,{8}3h[16:1]/7h[16:1],{16}4h[16:1]/8h[16:1],,,2h[16:1]/6h[16:1],,1/5,{8}5h[16:1]/1h[16:1],
{16}8h[16:1]/7h[16:1],,,2h[16:1]/3h[16:1],,,{8}4h[16:1]/7h[16:1],{16}1h[16:1]/6h[16:1],,,8h[16:1]/3h[16:1],,6/5,{8}5h[16:1]/6h[16:1],
{16}8h[16:1]/7h[16:1],,,3h[16:1]/4h[16:1],,,{8}4h[16:1]/6h[16:1],6h[16:1]/1h[16:1],{16}8,7,1,6,2,5,
{4}3-5[8:1]*-1[8:1],3,{24}8,7,6,5,4,3,8/2,7,6,5,4,3,
{8}2b/8b,8b/2b,{16},,1,8,1,8,2,7,2,7,3,6,
{8}3,{16}5,5,{8}7,{16}4,4,{8}2,{16}1,8,2,7,3,6,
{8}4b/5b,3b/6b,{16},,5,4,5,4,6,3,6,3,7,2,
{8}7,{16}1,1,{8}3,{16}8,8,{8}6,{16}4,5,3,6,2,7,
{32}2b,3,4,5,6,7,8,1,2,3,4,5,6,7,8,1,2/6b,5,4,3,2,1,8,7,6,5,4,3,2,1,8,7,
{16}6/3b,5,3,5,2,4,2,4,3,5,3,5,4,6,4,6,
5,7,5,7,4,8,4,8,4,5,3,6,4,5,3,5,
{8}2,{16}6,5,{8}7,{16}1,8,1,7,1,6,1,5,2,6,
3,7,4,8,5,1,4,8,3,7,2,6,1,5,8,4,
{8}5/1,{16}6/5,6,,3/4,{8}3,{24}1,8,1,8,1,8,{8}1,3/4,
6/5,{16}1/2,1,,8/7,{8}8,{24}5,4,5,4,5,4,{8}5,6/3,
{16}7/2,7/2,,1/6,,8/3,,5bx/B5,{12}6bx/B6,7bx/B7,8bx/B8,1bx/B1,2bx/B2,3bx/B3,
{16}4bx/B4,,,E2,{32},E6,,,E4,,,E8,,,{16}B3/E3,{32},B7/E7,,,B4/B5/E5,,,E1/B1/B8,{96},,,,,,,,,,,,{24}1x,
2x,3x,7x,6x,5x,2x,3x,4x,8x,7x,6x,1x,2x,3x,7x,6x,5x,2x,3x,4x,8x,7x,6x,
3,4,3,4,3,4,2,5,2,5,2,5,1,6,1,6,1,6,8,7,8,7,8,7,
{8}8b-3[8:1],8,6-1[8:1],6,4-7[8:1],4,2-5[8:1],2,
1-4[8:1],1,8-4[8:1],8,{4}8bw4[8:1],8b,
{24}5/1,2/6,3/7,4b/8b,{48},,,,,,,4/8,,3/7,,2/6,,{16}1b/5b,{48},,,,,,{24}1/5,2/6,3/7,{4}8bqq5[16:5]/4bqq1[16:5],
{8},,,,1b-6[8:1],2bh[16:3],1b,3b-8[8:1],
4bh[16:3],3b,5b-2[8:1],6bh[16:3],5b,7b-4[8:1],8bh[16:3],7b,
{4}1bw5[8:1],1b,{8}6b/5b,{24}6/5,7,8,{8}1,3b/4b,
{24}4/3,2,1,8,,,{8}5b/4b,{24}5/4,6/3,7/2,{8}8/1,3b/7b,{4}1b/5b,
{24}1,2,3,4,5,6,7,8,1,2,3,4,5/7,6,5,4,3,2,1,8,7,6,5,4,
{2}3bh[4:1]/1bh[32:61],{8}8x,7x,6x,5x,
4x,3x,2x,{32}3x,4x,,,4x,5x,,,5x,6x,,,6x,7x,,,7x,8x,,,{16}1,
2,3,4,5,6,7,8,1,2,3,4,5,6,7,8,
1,8,7,6,5,4,3,2,1,8,7,6,5,4,3,2,
{1}1bw5b[3.7895##0.1579],
Cfh[1:2],
,B1/B4/B5/B6/A1/A6/D6/A5/D5/A4,
E
