&title=Canto V Boss 1 Battle Theme
&artist=StudioEIM
&first=0
&des=中指_幼兄
&lv_5=14
&inote_1=
&inote_5=(138)
{1},
{4}4q5[4:1]/5,{16},,,,,7,7,5,5,6,6,4,
{16}54,,3h[8:1],,4,,1,1h[16:5],,,3,,5,,37,,
56,,4h[8:1],,5,,2,2h[16:5],,,4,,6,,48,,
67,,5h[8:1],,6,,3,3h[16:5],,,5,,7,,12,,
3,3,4,4,5p3[8:3],5,6,6,5x^8[8:1],,,,5bx,,,,
12,,3h[8:1],,5,,1,1h[8:1],,8,,3,7h[8:1],,5,,
46,,2h[8:1],,4,,1,1h[8:1],,7,,4,6h[8:1],,3,,
52,,3h[8:1],,4,,1,1h[8:1],,7,,4,8h[8:1],,2,,
7x,7x,7x,5x,5x,5x,6,4,5,3,4,2,7,8,6,2,
5^3[8:1],,6,,57,,8,8h[8:1],,1,,4,3h[8:1],,7,,
6^3[8:1],,7,,68,,1,1h[8:1],,2,,5,3h[8:1],,8,,
4^6[8:1],,3,,42,,1,1h[8:1],,8,,5,6h[8:1],,2,,
4,4,3,5,2-4-2-4-2-4-2-4-2[2:1],6,6,1,,,,,,,,,
7h[16:3],,,5h[16:3],,,6,,4V63[16:3],5,,3,4,,2,,
1h[16:3],,,8h[16:3],,,2,,3V58[16:3],4,,2,3,,1,,
2h[16:3],,,4h[16:3],,,3,,5V36[16:3],4,,6,5,,7,,
8x,8x,8x,5x,5x,5x,7,4,6,3,5,2,4,3,6,5,
7,,3,1h[8:1],,2,8h[8:1],,1V38[16:3],7,,6,1,,4,,
7,,5,6h[8:1],,4,5h[8:1],,3V15[16:3],4,,5,3,,7,,
7,,4,6h[8:1],,3,5h[8:1],,2,2,4-1[8:1],3,5,,46,,
7,7,8,8,6,6,1,1,{32}5bxv2[8:1]*v8[8:1],4,3,2,1,8,7,6,5x,,,,,,,,
{16}3/7,,6,4,5,,26,,3,3,4,4,5,,28,,
7/3,,2,8,1,,62,,7,7,8,8,{32}6bx,5x,4x,,1bx,2x,3x,,
{16}4xh/8,,6,5,7,,38,,26,,3,4,2,,16,,
78,16,,34,2<3[8:3]/5,,6,,2bx,,,,,,,,
{16}6/2,,3,5,4,,73,,6,6,5,5,4,,71,,
2/6,,7,1,8,,37,,2,2,1,1,{32}3bx,4x,5x,,8bx,7x,6x,,
{16}5xh/1,,3,4,2,,61,,73,,6,5,7,,83,,
1,3h[16:3]/8,,,4,,5,5,4,6,2,,8xh,8xh,8xh,8xh,
1h[8:1],,4,4,3,,26,,7,7,7,7,1x/7x,1x/7x,1x/7x,1x/7x,
1xh[8:1],,8,2,7,,46,,3,3,3,3,3x/5x,3x/5x,3x/5x,3x/5x,
5xh[8:1],,4,4,7,,83,,2,2,2,2,1x/2x,1x/2x,1bx/2bx,,
6,57,,3,2/4,,1,,6h[8:3],,A1,B1,C,B5,A5,,
8h[8:1],,5,5,6,4,5,,3x/4x,3x/5x,3x/6x,3x/7x,7x/2x,7x/1x,7x/8x,,
6xh[8:1],,5,5,7,4,6,,4x/5x,4x/6x,4x/7x,4x/8x,8x/3x,8x/2x,8x/1x,,
7xh[8:1],,4,4,6,5,48,,2,2,1^6[8:1],3,8,4,1,,
3,3,5,5,8,8,7,7,{32}1,2,3,4,58,7,6,5,
{8}4/1-5[8:1],1,61,6,,,7-5[8:1]*-3[8:1],7,
,,6<4[8:5],6,,,5-1[8:1],5,,,6<4b[8:5],6,,,5^8[8:1],5,,,
{16}5h[8:1],,6h,4h,8h,,8h,,2h[8:1],,5h,3h,8qq4[8:7],8,8h,,
{8}3-1[8:1],3,,,2-4[8:1],2,
,,3>5[8:5],3,,,4-8[8:1],4,,,3>5b[8:5],3,,,4^1[8:1],4,,,
8pp2^1-5[4:1],,,,{16}7,7,6,6,1,1,3,3,
{8}8^3[8:1],7,8/6,,5-1[8:1]*-8[8:1],6,5,,2^5[8:1],1,28,,6-2[8:1]*-8[8:1],5,6,,1^6[8:1],2,13,,4v7[8:1]*q8[8:1],5,4,,
{16}1h,1h,5h,3h,4h,,2h/5h,,7h[8:1],,4h,6h,1h,1h,1h,,
{8}7-5[8:1],7-1[8:1],,,4^6[8:1],4^2[8:1],,,5pp7[8:1],1pp3[8:1],,,8v5[8:1],4v1[8:1],,,
7-5[8:1],8-4[8:1],7,8,6-1[8:1],5-2[8:1],6,5,
{16}8,8,1,1,2,2,3,3,5,5,5,5,5,5,5,5,
5^3[8:1],,6,,57,,8,8h[8:1],,1,,4,3h[8:1],,7,,
6^3[8:1],,7,,68,,1,1h[8:1],,2,,5,3h[8:1],,8,,
4^6[8:1],,3,,42,,1,1h[8:1],,8,,5,6h[8:1],,2,,
7x,7x,7x,5x,5x,5x,6,4,7,3,5,2,7,8,6,2,
5-2[8:1],,6,,57,,8,8-5[8:1],,1,,8,4,,3,,
1^6[8:1],,2,,13,,4,4-1[8:1],,5,,4,8,,7,,
8-3[8:1],,7,,86,,5,5^8[8:1],,4,,5,1,,2,,
3,3,4,2,6,6,8,7,
1h[8:1],,3,,5,26,,3,
3h[8:1],,5,5h[8:1],,4,4h[8:1],,6V85[16:3],3,,1,6,,3,,
4h[8:1],,7,7h[8:1],,5,5h[8:1],,8qq7[16:3],4,,4,8,,3,,
2h[8:1],,8,8h[8:1],,1,1h[8:1],,7V58[16:3],2,,4,7,,2,,
1x,1x,1x,7x,7x,7x,5,6,4,8,1,7,2-7[8:1],4,3,5,
2,,6,6h[8:1],,4,4h[8:1],,5-7[8:1],3,4-2[8:1],2,5,,4,,
6h[8:1],,1,1h[8:1],,4,4h[8:1],,2^7[8:1],5,3pp5[8:1],4,2,,3,,
1h[8:1],,6,6h[8:1],,4,4h[8:1],,7,7,5-8[8:1],6,4,,35,,
2,2,1,1,3,3,8,8,{32}4bw8[8:1],5,6,7,8,1,2,3,4x,,,,,,,,
{48}1b,2,3,6,,,6,,,2b,3,4,7,,,7,,,{16}5,5,6,{32}3,4,{16}3,5,2,6,1,7,
{16}8b,8,8,8/6b,6,6,4,5,3,{32}7,8,{16}7,1,6,2,5,3,
{16}8-5[8:1]*-3[8:1],,71,,8,,,,1-6[8:1]*-5[8:1],,82,,1,,,,4-8[8:1]/3-8[8:1],,52,,43,,,,6p2[8:1]/5q1[8:1],,74,,65,,,,
{48}8b,7,6,3,,,3,,,7b,6,5,2,,,2,,,{16}4,4,3,{32}6,5,{16}6,4,7,3,8,2,
{16}1b,1,1,1/3b,3,3,5,4,6,{32}2,1,{16}2,8,3,7,4,6,
8-5b[8:1]*-3b[8:1],,26,,8,,,,1w5b[8:1],,37,,1,,,,
8,8,6,6,4,4,2,2,{32}8b,7,6,5,8b/4,7,6,5,1b/4,2,3,4,1b/5,2,3,4,8bz4[2:1]*s4[2:1]/5,,,,
{8},,,,,,,Ch[1:2],,,,E8/B7/B8,,,,E2/B1/B2/D2,,,,B5/B4/E5/A5/A4,,,,
