&title=10pt8ion
&artist=Lite Show Magic
&first=0
&des=Cosinecat
&lv_5=14
&inote_5=(185){1},
{32}1bx/8bx,2x/7x,3x/6x,4x/5x,{8},3,3h[4:1],,,,26,
,2q5[8:3]/6<1[8:3],,,,,,,
2h[2:1]/8h[2:1],,,,,,,46,
,4h[8:3]/6h[8:3],,,,,8,1,
{32}8bx/1bx,7x/2x,6x/3x,5x/4x,{8},6,6h[4:1],,,,71,
,35,3h[4:1]/5h[4:1],,,,4,3,
2h[4:1]/6,,8,8h[4:1],,6h[4:1],,8h[4:1],
,1,2-5[8:1]/7-4[8:1],,,,36,27,
1>8[4:7]/8,,8,,8,,8,,
1,,1,,1,,1,,
2,,2/E6,,2/E7,,2/E8,,
3,,3/E6,,3/E7,,3/E8,,
4-8[8:1],4,5-7[8:1],5,3-1[8:1],3,5,5,
{16}4,6,4,6,3,7,3,7,2,8,2,8,1x,1x,1x,1x,
{8}1xh[8:3],8x,7x,6x,5x<8[8:1]/1x>4[8:1],,1x-5[8:1]/5x-1[8:1],,
,,38,27,1/6-2[8:1],,8w4[8:1],,
{16}8b,,,,15,,,34,,,45,,65,,,,
87,,6,5,6,,3,4,3,,25,,6,,7,,
1b/8b,,,,48,,,65,,,54,,43,,,,
2,1,2,,6,8h[8:1],,7,1h[8:1],,8,3,7,2,6,1,
1xbh[8:1]/5xbh[8:1],,,,3xbh[8:1]/7xbh[8:1],,,,{32}1-5[8:1]*v6[8:1],2,3,4,{16}5,,1b,,,,
37,,6,5,7,4,8,,2,4h[8:1],,3,5h[8:1],,4,,
6v4[8:1],,4<5-1[32:5],,3,,3,,2-6[8:1],,,,21,,,,
4bh[4:1]/8bh[4:1],,,,,,2bh[4:1]/6bh[4:1],,,,,,1x-5b[8:1],,8x/7x,,
1x,,,,84,,,65,,,54,,34,,,,
12,,3,4,3,,6,5,6,,74,,3,,2,,
8b/1b,,,,51,,,34,,,45,,56,,,,
7,8,7,,3,1h[8:1],,2,8h[8:1],,1,5,3,7,1h[8:5],,
{32}8b,7x,6x,5x,,,,,7b,6x,5x,4x,,,,,6bv1[8:1],5x,4x,3x,,,,,,,,,,,,,
{16}3/8x,,6,5,6,,4,,35,,3h[8:3]/5,,{32}E6,B6,B7,E8,{8},
8x-6[8:1],2-6[8:1],8,2>6[8:1],,1,,8h[4:1],
,4,15,37,26,{16}8,4,5,,,,
{8}1xh[4:3],,,,C1,{24}E7,B6,B5,{8}E5,2xh[4:1],
,5x,6x,7xh[8:3],C1,{24}E3,B3,B4,{8}E5,,
{16}7b<3[2:1]/8b,,,,1,,,1,,,8,,7,,,,
1x>6[2:1]/5x,,,,7,,,8,,,1h[16:1],,1,,,,
{8}2x/8xh[8:7],,C1,,{24}E4,B3,B2,{8}E2,,1xh[8:5],
,7x,6x,{24}E6,B5,B4,{8}E4,{24}E8,B8,B1,E2,,,,,,
{16}3b-7V15[2:1]/4b,,,,5,,,5,,,6,,7,,,,
4x/8xV64[4:1],,,,3,,2h[16:1],,,,2,,1xh[8:1]/5xh[8:1],,,,
8/7-5[8:1],,,8,7,,1,,2/7-4[8:1],,,1,7,,2,,
3,2,1,8,7,6,5,4,3-6[8:1]/7b,,,,,,,,
{8}8h[8:1],7h[8:1],6h[8:1],5h[8:1],4h[8:1],3h[8:1],2h[8:1],1h[8:1],
8h[8:1],7h[8:1],6h[8:1],5h[8:1],4h[8:1],3h[8:1],2h[8:1],1h[8:1],
(170)8h[8:1],7h[8:1],6h[8:1],5h[8:1],(155)4h[8:1],3h[8:1],2h[8:1],1h[8:1],
(140)8h[8:1],7h[8:1],6h[8:1],5h[8:1],(128)4h[8:1],3h[8:1],2h[8:1],1h[8:1],
8-6[8:1],8x,4-2[8:1],4x,7-5[8:1],7x,3-1[8:1],3x,
6-4[8:1],6x,2-8[8:1],2x,6-2[8:1],6x,1x,1x,
8b/1b,76,54,32,1-5[8:1]/8-3[8:1],,18,,
{16}6h[2:1],,4,4,4,,4,,{8}3<6[16:1],6>3[16:1],C1h[8:1],,
{16}2-5[16:1]/6v1[16:1],,,,2b/6b,,8x,8x,4,6,5,6,3,6,5,6,
2,6,5,6,3,6,5,6,4,6,5,6,47,,B6/C1/B3,,
2-4[16:1]/5-8[16:1],,,,25,,7x,7x,1,6,5,6,8,6,5,6,
7,8,1,,2,28,,53,,6,4,8,3,5,1h[8:3],,
{24}E6,E5,E4,,,,{16}7b,,1x,1x,5,3,4,3,6,3,4,3,
7,3,4,3,6,3,4,3,5,3,4,3,2-6[16:1]/5,,6-2[16:1],,
,,C1,,7,3,4,3,8,3,4,3,1,3,4,3,
2,1,8,,17,17,,65,,7,4,6,3,5,2,4,
1b>4[16:1],,,,{96}1,,,,,8,,,,,,,{16},7x/6x,,{96}5,,,,,6,,,,,,,4,,,,,7,,,,,,,,5,,,,,6,,,,,,,4,,,,,,
(140){16}7bp3[16:1],,,,{96}7,,,,,8,,,,,,,{16},1x/2x,,{96}5,,,,,2,,,,,,,4,,,,,3,,,,,,,,5,,,,,2,,,,,,,4,,,,,,
(155){16}3b-8[16:1],,,,{96}3,,,,,5,,,,,,,{16},6,
6b-1[16:1],,,,{96}6,,,,,2,,,,,,,{16},4,
(170)4b-8[16:1],,,,{96}4,,,,,7,,,,,,,{16},5,
5b,,B7/E8,,B3/E4,,B5/E6,,
(185)1/2-4[8:1],,,1,2,,8,,7/2-5[8:1],,,8,2,,7,,
4/6-2[8:1],,,3,6,,4,,5/6-1[8:1],,,4,6,,3,,
{8}1x/2,12,23,34,45,56,67,78,
{16}1,6,4,5,3,6,2,7,1,8,1,1,1-5[4:5],1,1,(277.5)1,
(185){1},
{2},{32}E5,E4,E3,E2,E1,E8,E7,E6,{8}E5/C1f,,
2xbh[4:1]/4xbh[4:1],,,7xbh[4:1]/5xbh[4:1],,,3b/6b,,
8b/7b,5,1b/2b,4,1bs5[8:1]/8bz4[8:1],,{32}1b/8b,C1f,,,,,,,
{16}27,,3,,48,,6,5,6,,78,,12,,34,,
25,,7,8,7,,2,1,2,,8,,37,,6,,
{8}45,4-2[8:1]/5,,4/5-7[8:1],,4-1[8:1]/5,,4/6-8[8:1],
,6/5-1[8:1],,56,,8,2b/7b,,
{16}87,,6,,51,,3,4,3,,12,,87,,56,,
47,,3,5,,7,8,7,8,,1,,26,,3,,
{8}54,5-7[8:1]/4,,5/4-2[8:1],,5-8[8:1]/4,,35,
1h[4:1],7,6h[4:1],5,4w8[8:1],,4b,,
{16}26,,3,,45,,7,8,7,,65,,43,,21,,
78,,6,5,6,,2,1,3,1,2,,8-4[8:1],,4,,
{8}8b,2-4[8:1],,1-6[8:1]/2,,1/2-5[8:1],,2/8-6[8:1],
,8/1-4[8:1],,18,,5,3b/6b,,
{16}12,,3,4,2,4,3h[8:1],,6,5,6,5,{24}7,8,7,{16}8,,
16,,2,8,3,7,4,6,{24}3,5,3,{16}5,,2-6[8:1]/6,,18,,
2b,,7,,75,,35,,2,4,2,4,1,4,1,4,{32}1b,2,3,4,5,6,7,8,{8}1w5[8:1],37,,,E7/C1f/E3/B6/B7/B3/B2,,
{1}8x<4v7b[1:1],
{16}3,,3,,3,,3,,2,6,2,6,1,5,1,5,
{8}4b/8b-4b[8:1],,8b/5b,6b-1b[8:1],,3b/6b,,{32}2b,1/3qq5[16:11],84,75,
{1}6pp4b[32:19],
