&title=悔_
&artist=Essbee
&first=0
&des=HDou
&des_5=
&lv_5=14+
&inote_5=(193){4},{8},,,,,,,,,5-1[16:19],
,,,,,,,,,,,,6b/3b,
5,{4}4,{8},6,5,4,
,6,5,4,,3,4,5,
6,5,4,3,,5,4,3,
,5,4,3,,1,8,7,
2h[2:1],6,5,4,,5,4,3h[2:1],
,6,5,4,{4}3pp6[1:1],{8}2,2h[8:7],
,,,,,,,,{4}5h[4:1],
{8}4,4>1[8:1],,7,{4}7qq7[16:5],
{8}7/1,,,3,{2}8/3qq4[8:3],
{8}7h[8:3],,,5,5/6,6>3[16:3],,,2h[8:3],
,,1,8/2,7,,3<6[16:3],
,,,7,8/1,2,3,4,
5/1>4[16:3],,,6,{2}6/5-8[16:3],
{8}4-1[16:3],,,7,{4}7/8<5[16:3],3pp2[16:7],
1h[2:1],{8},,,,7pp8[4:1],6,
5h[8:3],,,7,{16}6,5,7,4,{8}8>6[16:3],7,
{4}8b/2b,1V35[16:3],{8}7,7-4[8:1],,7/8,
{16},,3,3,{8}4,2,7/1,6,5/1<3[16:3],2,
{4}1/7,8V64[16:3],{8}3V52[16:3],3,,7,
{16},,6,6,{8}5,7,8/2,3,5/4<2[16:3],6,
{4}4/7,{8}6,6,5/2,3,5V38[16:3],6,
,,7,6,5/3,2,4/6,7/3,
{4}4/6V47[16:3],{8}3,2,1,8,2/7,3,
4/5,{16}6,5,{8}7,2,3/7,3-6[8:1]/7-2[8:1],,3b/7b,
,8/4,8/4,7<4[8:1],,3qq1[8:1],,5,
{16},,6,6,{8}5,7,8/1,2<4[16:3],,2/5,
,7,7/1,2>5[8:1],,6qq4[16:3],7,8h[4:1],
,5,6/4,3h[4:1],{16},,5,5,{8}4,6,
{4}7/5V38[16:3],{8}6/5,6V47[16:3],,1/6,{4}2,
{8}2/1V74[16:3],1,2,2V83[16:3],,5,6,7,
8/4,2,6,4,5/2,3,4/7,6,
5/2,{16}4,7,,5,{8}2,{16}4,5,3,6,2,7,1,8,
{4}2/7,{8}3/5,2,7,8,3,4,
{16}6,5,6,5,{8}7,8,1/6,2,3/4,5,
6/4,5,7,8,3,4,{16}6,5,{8}6,
4,3,7,6,3,4,5,5,
6/4,4,3/8,8,4/7,4,5/3,5,
{16}3,4,3,4,{8}2,1,8/3,7,6/5,4,
3/5,5,6/1,1,2/5,5,{16}3,4,{8}3,
{16}5,4,6,5,{8}7h[8:1],{16}1,8,2,3,4,5,6,7,8,1,
{8}2/6V47[16:3],6,{4}1,{8}3-8[8:1],8-2[8:1],{4}7,
{16}6,5,7,4,{8}8,8,{16}2,1,{8}3,4,6,
5/7V16[16:3],7,{4}2,{8}4,5,{16}3,4,{8}2,
2-5[8:1],5-3[8:1],{4}7,{8}6-1[8:1]*-8[8:1],1,,,5/2V83[16:3],
2,5,6,7-4[8:1],4-6[8:1],3,2,
{16}1,8,2,7,{8}3,3,6/4,5,4/7,3,
2/6,7,1/8,{16}2,4,{8}3,{16}7,5,{8}6,1,
{16}4,2,5,3,6,4,7,3,5,4,6,3,7-3[16:27],2-6[8:13],{8}8/1,
,,,,,,,,,,,,,,,,2b/7b,
,,5,,3,,4,
,,{4}4,5,6,
{8}7h[8:3],,,4h[8:3],,,5,4,
3,,,2,,,{4}3,
{8}4/5h[8:3],,,6,,5,,4h[8:3],
,,{4}3h[4:1],4h[4:1],5h[4:1],
6,{8}6,5,{4}7,{8}2,4,
{4}3-8[8:1],{8}7,7-4[8:1],,2,{4}2pp1[8:3],
{8}2/6,,,7,1/7,6pp5[8:3],5,4,
,,,3,4/2,2pp3[4:1],,2/6,
,6pp7[4:1],,6/3,{4}2>5[16:3],6<1[16:3],
3,{8}7,6/3,2/5,1,8,7,
{4}6/5-8[8:1],5/3,{8}1-4[8:1],2,{4}1/3,
1/5-1[8:1],{8}5/7,8-4[8:1],,8/3,{4}2,
{8}5/1-5[8:1],1,8-4[12:1],8,2,{16}5,3,{8}7,8/1h[4:1],
{16},,6,2,5,3,6,4,7,2,1,3,7V53[4:1],8,6V42[16:3],1,
,,,,,,{8}8b,,1/7-1[8:1],5,3,
,6/2,{16}1,2,3,4,{8}5/6,7V13[4:1],8V24[16:3],6,
,,{4}1b,{8}4/6,2>5[8:1],8,2/7-4[8:1],
,3/7,2,5,6/2,8,4V28[16:3],7V53[16:3],
,,,2b,,8/2-8[8:1],4,6-4[8:1],
,3,2,8,3/7,5V71[16:3],2V46[16:3],1,
,,{4}7b,{8}4/6,6-4[8:1]/4-1[8:1],,6/4-7[8:1],
,2,3,4,6/5,7/4,{16}8,1,8,1,
{4}7b/2b,{8}5/2,{16}3,4,{8}2-5[8:1],1/8,{4}7,
{8}6/5,{16}6,5,{8}7,8,1-6[8:1],2/8,{4}3-8[8:1],
4-7[8:1],{8}4/2,3qq2[16:3],,3/8<5[8:1],{16},,,,,,3,
4,{8}2,5,6/4,{16}7,1,{4}8-5[8:1],
8/2V41[16:3],{8}2/6,7,,6/8,5,4,
3/1-6[8:1],8,{4}7,{8}6/5-1[8:1],4,{4}3,
8/2p1[16:5],{8}6,6h[8:3],,,5,6,
3/7,{16}4,5,{8}3,2-5[8:1]/6-1[8:1],,6/2,{24},,,8/4-8[8:1],3/7,2/6,
{8}5/1-5[8:1],,,6,7b/4b,1bs5[8:1]/8bz4[8:1],,1b/8b,
,3/6,4/8,3,1/5,{16}6,4,{4}3>8[8:1]/7<4[8:1],
7/3pp5[6:1],{8}1,1,2/8,3/7pp1[6:1],,7/5,
,4,5/3,6/2,7/1,{16}8,1,{8}7-3[8:1],6/4,
,,1,7,3/6,3,2/5,5,
6/4>1[8:1],4,8-4[8:1],8,2-6[8:1],2,7,8,
4,3,1/5,6,7/3,5/4-8[8:1],6/2,4b/3b,
{16},,3,5,{8}4,6/2,{16}3h,7h,3h,7h,3h,7h,3h,7h,
{8}1b/8b,{16}2,6,3,5,3,5,4,6,4,6,3,7,2,8,
1,6,1,6,2,5,2,5,3,7,3,7,4,6,3,5,
2,4,3,6,5,7,1,8,2,6,3,6,4,7,4,7,
2,1,3,8,4,7,5,6,3,4,2,5,1,6,8,7,
{8}2b,{16}5,3,6,4,6,4,7,1,7,1,6,2,5,3,
{8}7b,{16}4,6,3,7,3,7,1,8,2,7,3,5,4,6,
{8}2b,{16}8,4,7,3,6,2,{8}8b,{16}1,5,2,6,3,7,
2b,8,4,7,3,6,2,5,{12}1b,7b,3b,8b,2b,5b,
{8}1w5[8:1],1,{4}1b,{8}7/3-8[8:1],2,7v4[8:1],6,
2>5[8:1],1,6<1[8:1],7,3v8[8:1],4,7-4[8:1],6,
1,{16}1,5,{8}2-6[8:1],{16}3,4,{8}2,{16}7,1,{8}8-4[8:1],{16}7,3,
{8}8,{16}3,5,{8}1,{16}6,4,{8}8,{16}1,7,{8}3,{16}8,2,
{8}6b-4[12:1],6,3,{16}2,8,{8}1,{16}6,4,{8}5,7/3,
6/2b-8[8:1],2,7,{16}6,4,5b,3,6,2,{8}7,8/1,
{16}3b,8,3,8,4,7,4,7,3b,5,1,6,2,8,4,7,
2b,6,3,5,1b,7,3,5,{32}2b,1,8,7,6,5,4,3,2,1,8,7,6,5,4,3,
{1}2/6>6[2:7],
,,,{8}5,
,,4,,3,,4,
,,,,{2}5,
4,{8}5,3,,4,
,,,,{4}7,{8}4,3-6[4:1],
,,5h[16:1],5h[16:1],{4}4,{8}3,2,
,,{4}7,6v5[16:3],{8}4h[24:1],4,
{4}3-6[16:3],{8}5h[16:1],5h[16:1],4,3,,1,
,,,,,,7,5,
,,,,{2}2v4[16:3],
{8}7h[16:1],7h[16:1],5h[16:1],6,5v4[16:3],3,2h[32:1],2>7[8:5],
,,,5,,3,,1,
,4,5,6,4>6[8:3],3>5[24:7],
E
