&title=最炫民族风
&artist=凤凰传奇
&first=1.09
&des=salap
&lv_5=13+
&inote_5=(127)
{8},,,,,,4b>5[1:2]/5b,,,,,,,,,,,,,,,,,,,,
{8}4/5,3/4,4/5,5/6,4h[4:3],,1,7,8b-5[8:1],,8b,,
{16}5/4,,3,6,3,,7,,2,,8,,1,,7/4,6/3,5h[4:3]/2,,,,
{8}8,2,1b-4[8:1],,1b,,
{16}5/4,,3,4,3,,3/4,,5/6,,2,1,2,,8,,8-4[8:1],,,,
{8}7-3[8:1],,6-2[8:1],,5-1[8:1],,4-8[8:1],,3-7[8:1],,2-6[8:1],,
2>5[16:1],,
{64}12,8,7,6,,,,,,,,,,,,
{8}6-4[8:1],,4V68[8:1],,8<1[1:1],,,,,,,,,,
{8}3,,3,3,4,,4,4,45,,4qq4[8:3]/4pp4[8:3]/3,,,,,,
{8}8h[8:1],,7h[8:1],6h[8:1],5,6,5,6,54,,5pp6[8:3]/5qq4[8:3]/6,,,,,,
{8}4,5,3,6,4,5,,2/6h[8:1],8b,3h[8:1]/7,1b,2/6h[8:1],8b,7h[8:1],6h[8:1],5,
45,1,45,8,46,1,35,8,7b/2b>5[8:1],,2b/7b<4[8:1],,2b/7b,,,,
{8}3>6[8:2],,6<3[8:2],,3>6[8:2],,6<3[8:2],,3>6[8:2],,6<6[8:4],,,,,,
4h[8:2],,3h[8:1],2h[8:1],1h[8:1],8h[8:1],7h[8:1],6,
6-3[8:1]/7-2[8:1],,67,,2-7[8:1]/3-6[8:1],,23,,
{8}5-2[8:1],4-7[8:1],5-1[8:1],4-8[8:1],5,4,,34,8b,56,1b,34,8b,1,2,
3-6[8:1],3,2-7[8:1],2,3-6[8:1],3,2-7[8:1],2,3,3b,,6b-3[16:1],,6b,,18,,
78,45,12,45,56,34,67,23,
{64}8b,7,6,5,,,,,,,,,,,,1b,2,3,4,,,,,,,,,,,,1b/8b,2b/7b,3b/6b,4b/5b,,,,,,,
{8},,,8-4[8:1]/1,7,1-5[8:1]/8,2,8-3[8:1]/1,7,1-6[8:1]/8,2,
8<5[8:1]/1,7,1>4[8:1]/8,2,1/8-5[8:1],7,8,,
4h[8:1],3h[8:1],2h[8:1],1h[8:1],8h[8:1],7h[8:1],6h[8:1],5qq5[8:2]/5pp5[8:2],5,,,,
1b-5[8:1]/8b-4[8:1],2b/7b,1b/8b,,
3>8[8:1],4,6<1[8:1],5,4p7[8:1],3,5q2[8:1],6,3>8[8:1],4,6<1[8:1],5,4p7[8:1],,
4-1[8:1],,4/3-6[8:1],,3/2-7[8:1],,2/6-3[8:1],,6/7-2[8:1],,7/5-8[8:1],,54,,
5bp8[8:1]/4bq1[8:1],3b/6b,4b/5b,,
8<4[8:1]/4>8[8:1],,8q4[8:1]/4q8[8:1],,8<4[8:1]/4>8[8:1],,8/4,,
1>5[8:1]/5<1[8:1],,1p5[8:1]/5p1[8:1],,1>5[8:1]/5<1[8:1],,1/5,,
78,12,8p4[8:1]/1q5[8:1],4q7[8:5]/5p2[8:5],,,,,,,,,
7b-3[8:1]/8b-4[8:1],1b/6b,7b/8b,,
1p7[4:1],,7p5[4:1],,5p3[4:1],,3p1[4:1],,1p7[4:1],,7p5[4:1],,5q4[4:1],,4p6[4:1],,
6q8[4:1],,8q5[4:1],,5q7[4:1],,7-2[4:1],,2<7[8:1],,,,
1b-5[8:1]/2b-6[8:1],8b/3b,1b/2b,,
6b-3[2:1]/7b-2[2:1],,,,,,,,2b<7[2:1]/3b<6[2:1],,,,,,,,
6-1[8:1]/2-5[8:1],15,62,,8V63[8:1]/4V27[8:1],37,48,,
7-2[8:1]/3-6[8:1],2-7[2:1]/6-3[2:1],37,,,,,,
6<8[8:1]/3,5,3>1[8:1]/6,4,6<8[8:1]/3,5,3>1[8:1]/6,4,36,,,,
{16}1b,8,2b,7,3b,6,4b,5,
{8}4b-1[8:1],3,4-7[8:1],5,4-1[8:1],3,4-7[8:1],5,4,
{16}1,8,1,,
{8}7/8-3[8:1],2/1-6[8:1],8,1,
{16}2,3,4<8[4:1],,,,
{8}8>2[4:1],,2V85[4:1],,5>2[4:1],,2>7[4:1],,8,,1,
{16}4,5,4,5,45,,
{32}37,26,15,,,,,,26,37,48,,,,,,
37,26,15,,,,,,26,37,48,,,,,,
{16}18,,1,8,1-5[8:1],,7,,18,,2,,18,,
{32}1,28,37,46,5-8[8:1],,,,
{8}6,5-2[8:1],4,5-8[8:1],6,5-2[8:1],4,5>5[4:3],,,,,,,,
{8}3h[8:1],1,4h[8:1],1,5h[8:1],8,6h[8:1],8,3bqq5[8:5],,6bpp4[8:3],,,,,,
{8}7>2[8:1],8,7/3<6[8:1],4,3/7>2[8:1],8,37,4,
{16}5V31[8:1]/4V28[8:1],,1V75[8:1]/8V64[8:1],,
{8},,,,,
{16}4,5,
{8}78,56,78,45,78,34,12,34,1b/2b,45,1b/2b,56,7b/8b,12,67,23,
4/5-7[8:1],6,4-8[8:1]/5,3,
4/5-1[8:1],6,4-2[8:1]/5,3,
4b/5b-7[8:1],6,4b-8[8:1]/5b,3,4b/5b,,,,
{8}6-1[8:1],2-7[8:1],6-3[8:1],2-5[8:1],6-1[8:1],2-7[8:1],6>4[8:1],2,6b,
3-1[8:1],8b,3-8[8:1],7b,3-7[16:1],6b,3-8[16:1]*-6[16:1],5,3,
7-2[8:1],3,7-3[8:1],4,7-4[8:1]*-2[8:1],5,7,,
4s8[4:1]/5z1[4:1],,4b/5b,,,,
{8}4-7[8:1],5-2[8:1],4-8[8:1],5-1[8:1],4,5,,65,1b,43,8b,65,1b,8,7,
6-3[8:1],6,7-2[8:1],7,6-3[8:1],6,7-2[8:1],7,6,6b,,3b-6[16:1],,3b,,81,,
21,54,87,54,43,65,32,76,
{64}1b,2,3,4,,,,,,,,,,,,8b,7,6,5,,,,,,,,,,,,8b/1b,7b/2b,6b/3b,5b/4b,,,,,,,
{8},,,7-4[8:1]/2,6,2-5[8:1]/7,1,8-4[8:1]/2,1,1-6[8:1]/8,2,
1/7-5[8:1],8,7/4-8[8:1],3,4/7-2[8:1],6,7,,
5h[8:1],6h[8:1],7h[8:1],8h[8:1],1h[8:1],2h[8:1],3h[8:1],4pp4[8:2]/4qq4[8:2],4,,,,
8b-4[8:1]/1b-5[8:1],7b/2b,8b/1b,,
6<1[8:1],5,3>8[8:1],4,5q2[8:1],6,4p7[8:1],3,6<1[8:1],5,3>8[8:1],4,5q2[8:1],,
5-8[8:1],,5/6-3[8:1],,6/7-2[8:1],,7/3-6[8:1],,3/2-7[8:1],,2/4-1[8:1],,45,,
4bq1[8:1]/5bp8[8:1],6b/3b,5b/4b,,
{8}1/7-4[8:1],8,7/2-4[8:1],1,2/6-1[8:1],5,6/3-7[8:1],2,
3/5<8[8:1],6,5/4>2[8:1],5,4/1-6[8:1],8,1,4,
21,87,1q5[8:1]/8p4[8:1],5p2[8:5]/4q7[8:5],,,,,,,,,
2b-6[8:1]/1b-5[8:1],8b/3b,2b/1b,,
{8}6-1[8:1]/3,7,3-8[8:1]/6,4,5-1[8:1]/3,4,4-7[8:1]/5,3,
4/6-8[8:1],5,6/1-5[8:1],2,1/6-3[8:1],7,6/1-4[8:1],2,
{8}1/7<4[8:1],8,7/3>8[8:1],2,3/6-2[8:1],5,6/4-8[4:1],5,6/4,,,,
{8}1bw5[8:1]/8bw4[8:1],2b/7b,1b/8b,,
{64}8b/1b,7b/2b,6b/3b,5b/4b,,,,,,,
E
