&title=炯眼の絶対零度
&artist=polysha
&first=0.02
&des_5=CX_GHz
&lv_5=14
&clock_count=4
&inote_5=(175),,,,
{4}1b<5b[4:3]*>5[4:3],,,,,,4h[4:1]/5h[4:1],,
{8}7<4[4:1],8h[8:1],,1h[8:1],,2h[8:1],,3xh[8:1]/4-8[8:1],,,2-6[8:1],,12,8,7xh[4:1],,5b,4,36,2,18,7,6,5x<8[8:1],,5,2bh[8:1],,
{16}3x/4x,,,6x/5x,,,8qq5[8:5]/1pp4[8:5],,,,,,,,,,,,,,,,,,
{8}6z2[2:1]/2b,,,,,,,,1h[4:3],,,,,,,,8xz4[2:1],,,,,,,,3h[4:3],,,,,,,,6<5[2:1]/4,,,3h[8:4],,,,,2,1,8,7,E7,E6,E4,E3,2-5-1<7[2:1],5,5,6,6,B6,E6,B5,
{16}8b/5b,,,6b/1b,,,7bh/B2/B3,,,,,,
{32}A3,D4,A4,D5,A5,D6,A6,,
{16}7x,,8,,75,,6,,7,,4,6,5,6,4,,3,,46,,3,,2,,1x-5[8:1]/5x,,6,,1,,7,,8,7,6,2,3,4,7,6,5,1,2,3,5,6,7,8,1x/5x,,8h[16:1]/4h[16:1],,,7h[16:1]/3h[16:1],,,26,3,4,5,7,6,5,4,
2x,,1,,24,,3,,2,,5,3,4,3,5,4xh[16:1],,,7bh,,,8b/1bh,,,6bh/2b,,,E4/E5/7bh,,,6b/2-6b[8:1],,7,,28,,8,,7,,6,5,6,5,6,4,6,4,
{32}7xh[8:1],,,E6,B5,B4,E4,,3xh[8:1],,,E2,B1,B8,E8,,
{16}8x,7,6,5,4bh/8bh,,,,
{16}15,,2,4,3,,2,,53,,6,,74,,8<5[8:1]/4,,3,,8,,2,,2,,3,4,3,5,3,,2/6-4[8:1],,,,63,,3,,2,,1v4[8:1],,5v8[8:1],,1,,5,,,,3,,3h[8:1],,5,6,7-4[8:1],,8,,7,,1,,2,6,4,5,2,4,3,5,4-2[8:1],,5,6,4,,7h[16:1],,1,2,3,4,8,7,6,5,24,,35,,6,4,6,,3-5[8:1]/7,,28,,37,,6,,6,,3,4,3,,2>5[8:1]/5<8[8:1],,,,2/5-1[8:1],,,,5xb,,8bh[8:1],,,,
{24}1,8,7,6,5,4,
{16}3bh/7bh,,
{16}6,4,5,,6,,34,,2,,15,,8>3[8:1],,,,68,,6,,64,,5,,3,4,2,,1-5[8:1],,,,1x,,,7h[8:1],,,6h[8:1]/4h[8:1],,,5h[8:1]/2h[8:1],,,1>6[4:1]/4,,5h[8:3],,,,,,,,
{24}7b,8,1,2,3,4,8hb,1,2,3,4,5,
{8}6b<1-5[2:1],,3,3,2,2,1x,1b-5[8:1],,1b<6[8:1]*>4[8:1],,1bw5[8:1],,A1f,,4x/5x,62,62,73,73,84,84,
{32}E1,E2,E3,E4,E5,E6,E7,E8,E1/4xb,,,,2,3,4,5,6,,,,7,6,5,4,3,,,,1,2,3,4,5,6,7,8,1,2,3,4,
{12}5b,,5,,5,,3,,3,,3,,A6/4,,E6,,B5,,D2/5,,A2,,D3,,8b/1b,,75,,64,,25,,3,3,4,4,3x/5x,,6x/4x,,E7/E3,,72,,8,8,1,1,B2/B7/Ch[1:1],,,,,,,,,,,,
{24}3,2,1,8,7,6,3,2,1,8,7,6,3,2,1,8,7,6,3-7b[8:1]/5,,,,,,
{16}3b,,6h[8:1],,8,,1,1,24,,3,,45,,3,,2-4[8:1],,5,,2-6[8:1],,6,,2,,7,,8,7,6,5,4b<8[8:1],,,,34,,,,3,,2,2,8,,7,,75,,6,5,6,,47,,4/7-4[8:1],,8,,7/2-5[8:1],,1,,2b/6h[8:1],,,,4,,5,,2,1,3,8,4,7,5,6,4-8[8:1],,3,,4/5-1[8:1],,6,,4>1[8:1]/5,,3,,45,,6,,7,6,5,4,8,7,6,5,1,8,7,6,5,4,3,2,1h[8:1],,,,24,,35,,7,5,6,5,7,4,5,4,6b<1[8:1],,,,56,,4,,3,,2,2,1h[8:1],,,,28,,37,,6,,3,4,2h[8:1],,8,1,7h[8:1],,5,6,4bh[8:1],,7,,56,,45,,2-5[8:1],,1,,2bx,,8bx,,7bh,,,5bh/3bh,,,6bh/B2/B3,,,1bh/E7/B6/Ch[16:3]f,,,,,,,2b/7b,,36,,
{24}4,5,4,5,4,5,4h[16:3],,,,,,,,,6b/3b,,,,,,
{16}7h[8:1]/8,,,1/7h[8:1],,,7h[8:1]/2,,,7h[8:1]/3,,,4b<2[4:1],,,,,,,,E7f/B6/B7,,,,8b-4[8:1]/1b-5[8:1],,,,1b/8b,,,,36,,27,,1,8,2,7,3,6,4,5,3,6,2bh[1:1],,,,,,,,,,,,,,,,,,,,,,,,,,34,,,45,,,5bqq2[2:1]/6bpp1[2:1],,,,,,,,,,,,,,,,1h[4:1]/2h[4:1],,,,,,3h[8:1]/4h[4:1],,,,,,45,,45,,6-1[8:1]/3-8[8:1],,,,3b>5[4:1]/6b<4[4:1],,,,,,,,,,,,7h[4:1]/5h[8:1],,,,,,6h[4:1]/5h[8:1],,,,4,,3,,27,,1b,8,1,8,1,8,1,8,1b,8,1,8,1,8,1,8,1b-6[8:1]*-4[8:1],,,,1x,,,,6bh/A3/D3,,,2bh/B7/A7,,,1bh/A6/B6,,7b-3b[8:1]/8bh[4:1],,,,,,1,1,24,,3,,25,,3h[8:1],,1,,8,,7,,6,5,6,4,6,,62,,17,,8,7,6,5,34,5,6,7,81,2,3,4,56,4,3,2,1bh[4:1],,8,,8,,81,,27,,
{24}5,4,5,4,,,36,,,
{32}7bh[8:1]/5bh[8:1],,,,,,8bh[8:1]/1bh[8:1],,,,,,2bh[8:1]/4bh[8:1],,,,,,6bh[8:1]/3bh[8:1],,,,,,8bh[8:1]/5bh[8:1],,,,,,7bh/2bh,,,,,,E7/E3,B6/B3,B5/B4,E5,A5f/A4f,,,,,,,,
{16}2b-5[16:1],,,8b-4[16:1],,,3b-8[16:1],,6x,,7x,,6b,7,8,1,4b,5,6,7,8b/4b,15,26,37,4b/8b,1,2,3,4x,2,3,7,5,6,1,3,2,8,6,7,1b<1[2:1],,,,,,,,,,,,,,,,7b,3,8b,1,6b,2,5b,4,
{32}7b,8,1,2,3,4,5,8b,1,2,3,4,5,6,7,8,1h[8:5],,,,,,,,,,,,,,,,,,,,
{12}6,5,4,3<6[8:20],
E
