&title=トワイライトフレーバー
&artist=irucaice×Ponchi♪ feat. あやぽんず*
&first=0
&des=トワイライト ホリナリティー
&clock_count=4
&lv_5=13+
&inote_5=(195)
{1}
,
{16}
,,,,,,,,
,,,,8x/2x,7,6,5,
4-8[8:1],,3-1[8:1],,4,,3,,
,,7h[8:1],,1,2,3,4,
5-1[8:1],,6-8[8:1],,5,,6,,
,,2,,5,4,6,3,
7b<4[8:1],,,,7,,2bq6[8:1],,
,,2,,8bw4[4:1],,,,
,,,,,,,,
2,1,8,7,1,8,7,6,
5h[8:4]/1h[8:6],,,,,,,,
{32}
,,,,,,,,
E6,E5,E4,E3,E2,E1,E8,E7,
{16}
2bx,,5,3,4,,2,,
4-8[8:1],,2,,4,,3,,
,,4,6,5,,7,,
5>2[8:1],,7,,5,,6h[8:1],,
,,,,1,5,1,5,
2,6,2,6,3,7,3,7h[16:5],
,,,,1bp8<1b[4:5],,,,
,,,,,,,,
,,,,E8,E7,E6,E5,
E4,E3,E2,E1,,,,,
{16}
6h[4:2],,,,,,4,,
3h[8:3],,,,,,6,,
7h[8:3],,,,1,,1>5[4:1],,
,,5V31[4:1],,,,8h[8:3],,
,,,,,,7,,
61,,2,,38,,7,,
61,,2,,38,,7h[8:3],,
,,,,E1,B1,B2,E3,
6,,3,5,4,,6h[8:2],,
,,3h[8:2],,,,5h[8:2],,
,,2,,E3,E4,E5,,
6,,E7,E8,E1,,4,,
3/6,,,,5,,5h[4:1],,
,,1,,2,,3h[4:1],,
,,7h[4:1],,,,1,,
1h[8:1],,7,,3,,6,,
4>1[8:1],,,,4x,,8,,
8<5[8:1],,,,8,,2,,
2h[8:2],,,,8,,8-6[8:1]*-5[8:1],,
,,8-2[8:1]*-3[8:1],,,,8,,
,,,,,,6h[4:1],,
,,3,,25,,6,,
74,,3,,2/5h[8:1],,3h[8:2],,
,,,,2/5,,6,,
7p3[8:1],,,,7/2,,1>5[8:1],,
,,1/6,,7,,8,,
8-5[8:1]/5-2[8:1],,,,85,,,,
1>4[8:1]/4<7[8:1],,,,14,,,,
8-4[8:1],,,,82,,,,
3,,5-2[8:1],,6,,57,,
,,8,,17,,2,8,
3,,7,,4,,6,,
{16}
2>5[8:1],,2h[8:1],,,,,,
7p3[8:1],,7h[8:1],,,,,,
2v7[8:1],,2h[8:1],,,,,,
8v3[8:1],,8h[8:1],,,,,,
1-5[8:1],,1h[8:1],,,,,,
6,,4v7[8:1],,,,4v1[8:1],,
,,4,,8,,2,7,
3,,6,,4,,5,,
4>1[8:1],,4h[8:1],,,,,,
7<4[8:1],,7h[8:1],,,,3,,
,,5,,46,,3,5,
2,,5,,45,,,,
3b/6b,,,,6,5,6,5,
7,4,7,4,8,3,8,3,
1,2,1,2,8,1,8,1,
7,2,7,2,6,3,6,3,
5x,,3,4,1,,3/5,,
,,5,,46,,6,5,
8,,6/4,,,,4,,
35,,4,,3h[4:1]/5,,,,
5,6,7,8,1,2,3,4,
1/5,8,7,6,5,4,3,2,
8/1,,3bx/6bx,,E7,,B6,,
C,,B3,,E3,,,,
{16}
7b-5[8:1]/4b-8[8:1],,,,74,,,,
2b-4[8:1]/5b-1[8:1],,,,25,,,,
47,,6,,52,,3qq8[8:3],,
,,3,,7,,6,,
5<8[8:1]*>2[8:1],,,,5,,,,
1,,2b/8b,,,3b/7b,,,
4b/6bpp1[8:3],,,,,,2,,
3,,,,4,8,3,7,
2>5[8:1],,,,2/7p3[8:1],,,,
7/8-3[8:1],,,,8,,6h[4:1],,
,,2,,46,,7,,
3h[8:2]/5,,,,6h[8:2],,,,
1b,,,,2,8,2,8,
{32}
2,,8,,2,,8,,1x,2x,3x,4x,5x/1x,8x,7x,6x,
{16}
5,,3,5,4,,7,5,
6,4,5,3,4,2,5,3,
5b-8[8:1]*-2[8:1],,,,5,,,,
1b-4[8:1]*-6[8:1],,,,1,,,,
5x/2x,,3,,4x/7x,,6pp1[8:3],,
,,6,,2,,3,,
4-2[8:1]*-1[8:1],,,,4-6[8:1]*-7[8:1],,,,
4-8[8:1],,,,4w8b[8:1],,,,
4b,,,,,,26,,
3b/5b,,,,5<8[8:1],,3x,2x,
1bx/5b,2,3,4,5-2[8:1],,,,
5b/1b,8,7,6,5-7[8:1],,,,
5b/1b,2,3,4,5,,7bx,4,
6,3,5,2,6b,3,7,4,
6x,,6,,6,,6/4,,
6,,6,,6/7,,6,,
1/6,,1,,1,,1/3,,
1,,1,,1/8,,1,,
2b/7b,,,,2,8,2,8,
3,7,3,7,4,6,4,6,
3,2,1,8,7,6,5,4,
8,1,2,3,4,5,6,7,
18,,,,,,5h[8:3],,
4h[8:3],,,,,,,,
{16}
B6,,B5,,B4,,B3,,
,,,,,,,,
Ch[8:3],,,,,,,,
,,,,,,,,
E6,,B5,,B4,,E4,,
,,,,,,,,
Ch[8:3],,,,,,,,
,,,,,,,,
A6,,A5,,A4,,A3,,
,,,,,,,,
Ch[8:3],,,,,,,,
,,,,,,,,
6x,,5x,,4x,,3x,,
,,,,,,,,
C,,,,,,,,
3b/6b,,3b/6b,,,,,,
{16}
5/6-8[8:1],,7,,5-2[8:1]/6,,4,,
5/6<1[8:1],,,,6,,3x-8-6[4:1],,
,,3/6-1-3b[8:2],,,,5h[4:2],,
,,,,,,,,
4/3-1[8:1],,2,,4-7[8:1]/3,,5,,
4/3>8[8:1],,,,3,,7x<4[8:1],,
,,7/1-5[8:1],,,,1/8<5[8:1],,
,,4/8,,3,,2h[8:3],,
,,,,7<3[8:2],,,,
3>7[8:2]/7,,,,7<4[8:2],,,,
4>1[8:2],,,,1<6[8:2],,,,
5,,,,4,,3,,
2h[8:3],,,,,,8,,
8h[8:3],,,,,,4,,
4,,8,7,6,4,3,2,
7,6,5,3,2,1,7,6,
5h[4:4],,,,,,,,
,,,,,,,,
4h[4:2],,,,,,,,
,,,,3,5,4,6,
3bx,,3,,3,,3b/5,,
3,,3,,3b/2,,3,,
8b/3,,8,,8,,8b/6,,
8,,8,,8b/1,,8,,
,,2,4,3,,6,,
35,,2,,46,,7,,
35,,1,,46,,8,,
5h[4:1],,1,,2,,3h[4:1],,
5,6,7,8,1,2,3,4,
1/5,8,7,6,5,4,3,2,
8/1,,3bx/6bx,,E7,,B6,,
C,,B3,,E3,,,,
{16}
,,,,,,,,
5x,,,,4x/5x,,,,
4x,,,,4x/5x,,,,
5x,,4x,,3x,,2hx[4:1],,
,,7x,,6x,,5x,,
4x,,,,5x/4x,,,,
C,,A8/E8/E1,,,A3/E3/E4,,,
A6/E6/E7,,,,4,,3bx/6bx,,
,,4,,5,4,5,4,
,,,,5x,,4,5,
2bx,5,4,5,7bx,5,4,5,
3bx,5,4,5,8bx,5,4,5,
2bx,5,4,5,6bx,5,4,5,
1bhx[8:4],,,,7,,,,
6,,,,5,,3,4,
1,,82,,,,17,,
,,7,1,6,2,5,3,
{16}
4b-1[8:1]*-7[8:1],,,,4,,,,
8b-5[8:1]*-3[8:1],,,,8,,,,
4x/7x,,6,,5x/2x,,3qq8[8:3],,
,,3,,7,,6,,
5-7[8:1]*-8[8:1],,,,5-3[8:1]*-2[8:1],,,,
5-1[8:1],,,,5w1b[8:1],,,,
5b,,,,,,73,,
6b/4b,,,,4>1[8:1],,6x,7x,
8bx/4b,7,6,5,4-7[8:1],,,,
4b/8b,1,2,3,4-2[8:1],,,,
4b/8b,7,6,5,4,,2bx,5,
3,6,4,7,3b,6,2,5,
3bx,,3,,3,,3b/5,,
3,,3,,3b/2,,3,,
8b/3,,8,,8,,8b/6,,
8,,8,,8b/2,,8,,
2b/8,,2,,2,,2b/3,,
2,,2,,2b/5,,2,,
5,6,7,8,1b-3[8:1]*-4[8:1],,,,
1b-7[8:1]*-6[8:1],,,,1b-5[8:1],,,,
1,,,,6,4,6,4,
7,3,7,3,8,2,8,2,
7,1,7,1,6,2,6,2,
{32}
5,,3,,5,,3,,
6x,7x,8x,1x,2x,3x,4x,5x,
{16}
6hx[8:1],,3,4,1,,5/3,,
,,5,,46,,6,5,
8,,46,,,,4,,
3/5,,4,,3/5h[4:1],,,,
2bh[4:1],,,,4,5,6,7,
8/4,3,2,1,4/8,5,6,7,
8/2bx,,1bx/8bx,,,,5h[8:3],,
4h[8:3],,,,,,,,
{16}
7bx,,4,6,5,,7,,
5-1[8:1],,7,,5,,6,,
,,5,3,4,,2,,
4-8[8:1],,2,,4,,3,,
,,4,6,5,,7,,
5>2[8:1],,7,,5,,6h[4:1],,
,,4,,4h[8:2],,,,
1v6[8:1],,3,,1,,2h[8:1],,
,,5,3,4,,2,,
4-8[8:1],,2,,4,,3,,
,,4,6,5,,7,,
5-1[8:1],,7,,5,,6,,
,,5,3,4,,2,,
4<7[8:1],,2,,4,,3h[4:1],,
,,5,,5h[4:1],,,,
2,4,3,5,4,6,5,7,
{16}
4hx[4:1],,,,5x,,,,
{24}
,,,1x,,,
{24}
7,,8,,
7,,2,,1,,2,,
7,,8,,6,,2,,
1,,3,,5,,3,,
6,,4,,5,,5,,
5/4,,,,,,4,,
,,,,36,,,,
,,7,,6,,8,,
2,,3,,1,,5,,
3,,6,,4,,7,6,
5/C,,
{16}
,,,,
2b/7b,,,,8,7,1,2,
8,7,1,2,7,6,2,3,
7,6,2,3,6,5,3,4,
6,5,3,4,6hx[4:1],,,,
1x,2,3,5x,6,7,2x,3,
4,6x,7,8,4bx,3,2,1,
6bx,5,4,3,8bx,7,6,5,
8bx/4,7/3,2/6,5/1,,,,,
1bq7q5b[4:5]/5bq3q1b[4:5],,,,,,,,
,,,,,,,,
,,,,,,,,
{32}
,,,,,,E6,E5,
E4/Chf[1:2],,,,,,,,
{8}
,,,,,,,,
,,,,,,,,
,,,,,,,,
,,,,,,,,
,,,,,,,,
,,E
