&title=Solar Wind
&artist=KyuRu☆
&first=0
&des=sNeoE_a
&des_5=sNeoE_a
&lv_5=13+
&inote_5=(140){4},,,,,,,,,,,,8h[4:7]/E2,
B2,,,,,,,7h[4:7]/B4,
E5,{8},,,,,,,,,,,,6h[8:1],
5h[8:1],{4}4h[2:3],{8},,,,,,,,,,,,3h[8:1],
2h[8:1],{4}1h[2:3],,,,,,,1/7h[4:7],
2,2,2,
2,2,2,2,
3/6h[4:7],4,4,4,
4,4,4,4,
{8}5h[8:1],4h[8:1],{4}3h[2:3],2,2,
2,2,2,2,
{8}1h[8:1],8h[8:1],{4}7h[2:3],6,6,
6,6,6-2[0.8571##0.1429],6b,
{8}6b,{16}7,8,1,2,{8}3,4,{16}3,3,,4,3,4,
{8}3,3h,3h,3h,3-7[0.8571##0.1429],3h,{16}3,4,4,4,
{8}3b,{16}2,1,8,7,{8}6,5,{16}6,6,,5,6,5,
{8}6,6h,6h,6h,6<1[0.8571##0.1429],6h,{16}6,5,5,5,
{8}6b,{16}2,3,{8}4,5,4,{16}5,5,,4,5,4,
{8}5,4,{16}5,5,,4,,5,,4,,5,5,5,
,,1,2,3,4,{8}5,{16}2,3,4,5,,3,4,5,
,8,1,2,3,4,5/1,2,3,4,5,6,{8}7,{16}8x/7x,5x/4x,
,,4,5,6,7/3,4,5,{4}6,{8}6,{16}5,6,
7,4/8,5,6,{4}7,{8}7,{16}6,7,8,5/1,6,7,
{4}8,{8}8,{16}7,8,1,6/2,7,8,{4}1,
1,{8}1,8,7,{16}8,7,6,5/1,8,7,
{8}6,{16}5,4,3,2/6,5,4,{8}3,{16},,,,4,3,
2,1/5,4,3,{4}2,{16},,3,2,1,8/4,3,2,
{8}1,2,3,{16}2,1,8,7/3,2,1,{4}8,
8h[4:3],{8}1,2,3,4,{16}3,2,{8}1,
{16}3,1,3,2,3,1,3,2,3,1,3,2,3,1,3,2,
4,2,4,3,4,2,4,3,4,2,4,3,4,2,4,3,
5,3,5,4,5,3,5,4,5,3,5,4,5,3,5,4,
6,4,6,4,6,4,6,4,6,4,6,4,6,4,6,4,
7,5,7,5,7,5,7,5,7,5,7,5,7,5,7,5,
8,6,8,6,8,6,8,6,8,6,8,6,8,6,8,6,
1,7,1,7,1,7,1,7,1,7,1,7,1,7,1,7,
1,2,1,2,1,2,1,2,1,2,1,2,1,2,1,2,
1,1,1,1,1,1,1,1,1,1,1,1,1,1,1,1,
1,1,1,1,1,1,1,1,1,1,1,1,1,1,1,1,
1,1,1,1,1,1,1,1,1,1,1,1,1,1,1,1,
1,1,1,1,1,1,1,1,1,1,1,1,1,1,1,1,
2,2,2,2,2,2,2,2,2,2,2,2,2,2,2,2,
3,3,3,3,3,3,3,3,3,3,3,3,3,3,3,3,
4,4,4,4,4,4,4,4,4,4,4,4,4,4,4,4,
5,5,5,5,5,5,5,5,6,6,6,6,6,6,6,6,
{2}6b,C,
{4},,,,E6,
E7,{2}C,
{4},,,,E8,
E1,C,E2,
E3,E4,E5,E6,
E7,E8,C/E1,E2,
E3,E4,E5,E6,
{16}1,2,{8}1,{16}1,2,{8}1,{16}1,2,{8}1,{16}1,2,{8}1,
{16}1,2,{8}1,{16}1,2,{8}1,{16}1,2,{8}1,{16}1,2,{8}1,
{16}8,2,{8}8,{16}8,2,{8}8,{16}8,2,{8}8,{16}8,2,{8}8,
{16}8,2,{8}8,{16}8,2,{8}8,{16}8,2,{8}8,{16}8,2,{8}8,
{16}7,2,{8}7,{16}7,2,{8}7,{16}7,2,{8}7,{16}7,2,{8}7,
{16}7,2,{8}7,{16}7,2,{8}7,{16}7,2,{8}7,{16}7,2,{8}7,
{16}7,3,7,3,7,3,7,3,6,2,6,2,6,2,6,2,
{24}7,3,6,2,7,3,6,2,7,3,6,2,{32}7,6,5,4,3,2,1,8,{48}7/3,4,5,6,7,8,1,2,{12}3,
{8}1/7<6[0.8571##0.1429],2,1,2/B7,1/7-5[0.8571##0.1429],2,1,2/B7,
1/7-4[0.8571##0.1429],2,1,2/B7,1/7-3[0.8571##0.1429],2,1,2/B7,
1/7<4[0.8571##0.1429],2,1,2/B7,1/7-4[0.8571##0.1429],2,1/7-1[0.8571##0.1429],2/B7,
1/7,2,{4}1/7,{16}6,6,5,5,4,4,3,3,
{8}5/3>2[0.8571##0.1429],6,5,6/B3,5/3-1[0.8571##0.1429],6,5,6/B3,
5/3-8[0.8571##0.1429],6,5,6/B3,5/3-7[0.8571##0.1429],6,5,6/B3,
5/3>8[0.8571##0.1429],6,5,6/B3,5/3-8[0.8571##0.1429],6,5/3-5[0.8571##0.1429],6/B3,
5/3,6,{4}5/3,{16}2,2,1,1,8,8,7,7,
{8}5/7>8[0.8571##0.1429],4,5,4/B7,5/7-1[0.8571##0.1429],4,5,4/B7,
5/7-2[0.8571##0.1429],4,5,4/B7,5/7-3[0.8571##0.1429],4,5,4/B7,
5/7>2[0.8571##0.1429],4,5,4/B7,5/7-2[0.8571##0.1429],4,5/7-5[0.8571##0.1429],4/B7,
5/7,4,{4}5/7,{16}7,6,8,5,1,4,2,3,
{8}1/3<4[0.8571##0.1429],8,1,8/B3,1/3-5[0.8571##0.1429],8,1,8/B3,
1/3-6[0.8571##0.1429],8,1,8/B3,1/3-7[0.8571##0.1429],8,1,8/B3,
1/3<6[0.8571##0.1429],8,1,8/B3,1/3-6[0.8571##0.1429],8,1/3-1[0.8571##0.1429],8/B3,
1/3,8,{4}1/3,{16}3,5,4,6,5,7,6,8,
{1}7bs3[0.8571##2.5714],
,,,7b/3b,
E
