&title=Tactics-Exhaustive
&artist=shadow_bling
&first=0.05
&des=OIl
&des_5=oil
&lv_5=13+
&inote_5=(170){4},{1},{4},,,{2}5/8-5[2:3],
{4}3,3,
2,2,2,2p3[4:7],
6h[8:1],6h[8:1],{16}7h[16:1],{8},{16}7h[16:1],{8},6h[8:1],
,6h[8:1],,7h,{16}7h[16:1],{8},{16}7h[16:1],{8}B2/B3,6h,
{4}A2/E3/A3/5-8[4:7],B3/E3,B3/E3,B3/E4,
E3/B2,B3/E4,B2/E3,B2/E3,
{8}3q2[2:3],{4},{8}6h[1:1],{2}E5,
{4},{8},C,{2},{4}B7/B6/B2/B3,
3/6h[16:7],{16}2,{8},{16}2,{8},3/6h[2:1],
,4,4,4,4,{16}6h[4:1],3,{8},3,
{4}2/5,6/3h[16:7],{16}7,{8},{16}7,{8},6/3h[8:5],
,5,5,5,5,{16}3h[16:3],6,{8},{16}6,5,
{8}4/7,4,7,7,5,5,8,8,
6,1,6,1,7,2,7,2,
{16}7,1,8,2,7,1,8,2,7,1,8,2,7,1-5b[0.2647##0.1765],8,2,
{1}1b/7bv8>1>2v3b[16:9],
{4}5/2h[8:1],5/2h[8:1],{8}2h[8:1],{16}6,6,{8}2h[8:1],5,
{4}2h[8:1],{8}2h[8:1],5,{16}5/2b<7[0.2647##0.1765],{8},{16}2b/5>2b[0.2647##0.3529],{4},7h[8:1],
4/7h[8:1],{8}7h[8:1],{16}3,3,{8}7h[8:1],4,
{4}7h[8:1],{8}7h[8:1],4,{16}4/7>2[0.2647##0.1765],{8},{16}7/4<7b[16:3],{8},{16}4,4b,
{4}3h[8:1],{8}3h[8:1],7,{16}3h[8:1],{8},{16}6,{4}6/3h[8:1],
{8}3h[8:1],6,3h[8:1],6,{16}3-1b[0.2647##0.1765]/6-8b[0.2647##0.1765],{8},{16}3/6,{4},{8}8h[16:1],
8h[16:1],2h[16:1],2h[16:1],6h[16:1],6h[16:1],4h[16:1],4h[16:1],
3/5h[16:1],5h[16:1],6/4h[16:1],4h[16:1],{16}6,3,5,4h[16:9],{4},6-1[8:1],
6b,{8}3>1[0.2647##0.1765],{16}3,3,{4}6h[8:1],
{8}8>2[8:1],8,7<5[8:1],7,{16}3b<6b[0.2647##0.2647],{8},{16}3,{4},3-8[8:1],
3b,{8}6<8[0.2647##0.1765],{16}6,6,{4}3h[8:1],
{8}1<7[8:1],1,2>4b[8:1],2,{16}6bh[16:3],{8},{16}5bx,{4},{2}3h[4:1]/6h[2:1],
{16}3bv8[8:1],{8},{16}3,{8}3,6h[4:1],
{4}1>4[8:1],6<1[8:1],5v7b[16:3],1bxv3b[16:3],
{1},,{8}6/B3/E3/B2,
6,,6,6/E3/B3/B2,{4},{8}6,
6/B5/E5/B4,6,{4},{2}B7/E7/B6/B3/B2/E3,
{8}3/B6/E7/B7,3,,3,3/E7/B6/B7,{4},{8}3,
3/B5/E5/B4,3,{4},{2}B2/E3/B3/B6/B7/E7,
{8}1/Ch[1:2],1,2,2,3,3,4,4,
5,5,6,6,7,7,8,8,
{4},{8},7,7/B3/E3/B2,{4},{8}8,
7/1,6/2,{4},{2}B2/B3/E3/B6/E7/B7/Cf,
{4}4/5,{16}6/4,{8},{16}6<1b[0.2647##0.2647],{8}4,6,4,3,
{4}1/3v6b[8:1],{16}3,{8},{16}1,{8},5/1,{4}7/3,
5/4-8b[8:1],{16}4/3>1b[0.2647##0.2647],{8},{16}3,{8}8,8,1/8<5b[16:3],2/8,
2>5b[8:1],2,6<1b[8:1],6,{2}5x-1b[8:1],
{4}5/4,{16}3/5,{8},{16}3>8b[0.2647##0.2647],{8}5,3,5,6,
{4}8/6v3b[8:1],{16}6,{8},{16}8,{8},4/8,{4}2/6,
4/5-1b[8:1],{16}5/6<8b[0.2647##0.2647],{8},{16}6,{8}1,1,8/1>4b[16:3],7/1,
{4}7<4b[8:1],3>8b[8:1],{2}4x-8b[8:1],
{4}1/8,{16}7/1,{8},{16}7<4b[0.2647##0.2647],{8}1,7,1,2,
{4}4/2v7b[8:1],{16}2,{8},{16}4,{8},8/4,{4}6/2,
8/1-5b[8:1],{16}1/2>4b[0.2647##0.2647],{8},{16}2,{8}5,5,4/5<8b[16:3],3/5,
3>8b[8:1],3,7<4b[8:1],7,{2}8x-4b[8:1],
{4}8/1,{16}2/8,{8},{16}2>5b[0.2647##0.2647],{8}8,2,8,7,
{4}5/7v2b[8:1],{16}7,{8},{16}5,{8}1,5,{4}3/7,
1/8-4b[8:1],{16}8/7<5b[0.2647##0.2647],{8},{16}7,{8}4,4,5/4>1b[16:3],6/4,
{4}6<1b[8:1],2>5b[8:1],1x-5b[8:1],8b<5b[8:1],
{1}8bw4b[2:7],
,,,{2}6h[1:2],
3h[2:3],
{1},{2},B7/B6/E7/E3/B3/B2/Ch[2:1],
{4},,,{8}2-4[8:1],2,
5,5,3-5[8:1],3,6-8[8:1],6,3,3,
{4}8h[8:1]/3h[8:1],{8}7,6,{4}3h[8:1]/5h[8:1],{8}4-8[8:1],6h[8:1],
{4}4,{8}8-4[8:1],6h[8:1],{4}8,{8}6-2[8:1],4h[8:1],
{4}6,{8}2-6[8:1],4h[8:1],2,4,7-5[8:1],4,
7,3h[8:1],6-4[8:1],6,3-1[8:1],3,6,6,
{4}1h[8:1]/6h[8:1],{8}2,3,{4}4h[8:1]/6h[8:1],{8}5-1[8:1],3h[8:1],
{4}5,{8}1-5[8:1],3h[8:1],{4}1,{8}3-7[8:1],5h[8:1],
{4}3,{8}7-3[8:1],5h[8:1],7,5,5/3,4/2,
{1}3b/1b,
,{4}6/8,
6/8,{16}6/8,{8},{16}5/7,{8},6/4,
,6/4,6/4,3,2,{16}1,2,{8},2,
{4}3/1,3/1,{16}3/1,{8},{16}4/2,{8},3/5,
,3/5,5/3h[4:3],6,{2}7h[8:3],
{8}7,7,3,3,6,6,2,2,
5,5,1,1,8x,8,4x,4,
{16}8,4,8,4,1,5,1,5,2,6,2,6,7,3,7,3,
{1}7bw3b[2:1],
{8}7/3-1[8:1],3,7,6h[8:1],4-8[8:1],4,7,6h[8:1],
2,3h[8:1],6,3/5,7b,6/4,2b,3/5,
2/7-5[8:1],7,3,2h[8:1],8-4[8:1],8,{16}3h[8:1],{8},{16}2,
{8}1,1h[8:1]/7h[8:1],,8,6b/4b,7,3b/5b,2,
2/6-8[8:1],6,2,3h[8:1],5-1[8:1],5,2,3h[8:1],
7,6h[8:1],3,6/4,2b,3/5,7b,6/4,
7/2-4[8:1],2,6,7h[8:1],1-5[8:1],1,{16}6h[8:1],{8},{16}7,
{8}8,8h[8:1]/2h[8:1],,1h[8:1]/7h[8:1],,2h[8:1]/8h[8:1],{4},{8}7/1,
7,1/7,7,8/2,8,2/7,7,
6/1-5b[8:1],6,6/1b,6,7/2-6b[8:1],7,7,7,
4/6,4,3/8-4b[8:1],3,3-7b[8:1],3,4-8b[8:1],4,
2,2,1/7,1,2/6,8/1,6/7,5/4,
2/8,2,8/2,2,1/7,1,7/2,2,
3/8-4b[8:1],3,3/8b,3,2/7-3b[8:1],2,2,2,
5/3,5,6/1-5b[8:1],6,6-2b[8:1],6,5-1b[8:1],5,
7,7,8/2,8,3b/7b,8b/1b,2b/3b,4b/5b,
3-7b[8:1],1,7-3b[8:1],1,3-7b[8:1],1,{4}7-3b[8:1],
{8}3-7b[8:1],1,{4}7-3b[8:1],{2},{8}6-2b[8:1],
8,2-6b[8:1],8,6-2b[8:1],8,{4}2-6b[8:1],
{8}6-2b[8:1],8,{4}2-6b[8:1],{2},{8}5/3,
5,5/2,5,4/2,4,4/2-6b[8:1],4,
4-8b[8:1],4,{4}6-2b[8:1],{2},{8}4/6,
4,4/7,4,5/7,5,7/5-1b[8:1],5,
{4}7-3b[8:1],3-7-3[2:1],
