&title=アマツカミ
&artist=a_hisa
&first=0.38
&des=c_yifa
&lv_5=14.8
&inote_1=(180)
{4},,,,
&inote_5=(180)
{4}4h[2:1]/5,,6,,
{4}7h[2:1]/4,,3,,
{4}1h[2:1]/6,,8,1,
{4}7,{12}8,1,8,{4}1,2,
{4}2h[2:1],,5,2,
{4}3,4,5,6,
{4}6/5,4,4/5,3,
{4}2/4,,8-4[90#12:1],,
{12}8b/1,2,3,5,6,7,1,2,3,5,6,7,
{12}1,2,3,5,6,7,1,2,3,5,6,7,
{12}2,3,4,6,7,8,2,3,4,6,7,8,
{12}2,3,4,6,7,8,2,3,4,6,7,8,
{12}3,4,3,8,1,8,3,4,3,8,1,8,
{12}4,5,4,8,1,7,4,5,4,8,1,7,
{16}5/6,,4/7,,3/8,,1/2,,3/4,,5/2,,6/1,,8/7,,
{16}8,7,8,7,8,7,8,7,1b,6b,1b,6b,1b,6b,1b,6b,
{16}2,3,4,5,1,2,3,4,8,1,2,3,7,8,1,2,
{16}3b/7b,,,,3,,,,4,,,,7,,,,
{16}2,,,,4,,5,,6,,1,,8/2,,,,
{16}7,,,,6,,,,5,,4,,3,,2,,
{16}3,,{24}4,5,4,{16}5,,6,,8,,1,,2/7,,,,
{16}5/4,,,,3,,,,2,,,,1,,,,
{16}2,,,,1,,8,,2,,{24}4,3,4,{16}3,,1,,
{16}8,,,,6,,5,
,4,,3,,6,,5,,
{16}4,,3,,2,,1,,8,,{24}5,6,5,{16}6,,4,,
{16}6/5,,,,5/4,,,,3/4,,,,2/4,,,,
{16}1/2,,,,7/8,,6-1[16:1]/1,,5/2-5[16:1],,,,,,,,
{16}6,,,,5,,,,6/2,,5/2,,4/2,,3/2,,
{16}1/2,,{24}2,3,4,{16}5,,7/8-2[16:1],,6-4[16:1]/1,,8-4[16:1],,,,,,
{16}6,,,,5,,,,5/4,,,,4/3,,,,
{16}5/4,,,,5/3,,5-8[16:1]/2,,5-2[16:1]/1,,{24}2/5,3,4,{16}5,,7,,
{16}6,,,,6/5,,6/4,,6/3,,6/2,,6/2,,2/5,,
{16}2/4,,3/2,,1/2,,1-4[16:1],,8-4[16:1],,8-5[16:1],,,,,,
{16}1-4[8:1],,,,1-5[8:1],,,,8/1,,,,7/1^3[8:1],,,,
{16}6h[8:2]/1-4[8:1],,,,1-5[8:1],,,,7/1,,7,,8/1^7[8:1],,8,,
{16}1-6[8:1]/2h[8:4],,,,1-5[8:1],,,,1,,,,1^7[8:1]/4,,,,
{16}1-6[8:1]/3h[8:2],,,,1-5[8:1],,,,1/3,,,,1^3[8:1]/2,,,,
{16}8h[8:2]/1-4[8:1],,,,1-5[8:1],,,,8/1,,8,,1^3[8:1],,7,,
{16}7h[8:2]/1-4[8:1],,,,1-5[8:1],,,,1,,6,,7/1^7[8:1],,8,,
{16}1-6[8:1]/2h[8:4],,,,1-5[8:1],,,,1,,,,1^7[8:1]*^3[8:1],,,,
{16}1w5[8:1],,,,1,,,,8,7,6,5,4,3,2,1,
{16}8-5[8:1],,,,8-4[8:1],,,,1/8,,,,2/8^6[8:1],,,,
{16}3h[8:2]/8-5[8:1],,,,8-4[8:1],,,,2/8,,2,,1/8^2[8:1],,1,,
{16}8-3[8:1]/7h[8:4],,,,8-4[8:1],,,,8,,,,8^2[8:1]/6,,,,
{16}8-3[8:1]/7h[8:2],,,,8-4[8:1],,,,8/5,,,,8-2[8:1]/6-3[8:1],,7,,
{16}8b-5[8:1]/6b,,,,8-4[8:1],,,,8,,,,8<4[8:1]/3-1[8:1],,4,,
{16}8b-3[8:1]/3b,,,,8-4[8:1],,,,7/8,,,,6-4[8:1]/8-2[8:1],,7,,
{16}6b/8b,,,,3-8[8:1]*-6[8:1],,,,3b,,,,7-5[8:1]/1-5[8:1],,,,
{16}7b-3[8:1]/1b-3[8:1],,,,1b-5[8:1]/7bv5[8:1],,,,1bv3[8:1]/7b-3[8:1],,,,7b/1b,,,,
{16}2h[2:7],,,,,,8,7,6,,,,,,7,6,
{16}5,,,,,,6,5,4,,,,,,,,
{16}7,,,,,,6,7,8,,,,,,,,
{16}7h[2:1],,,,,,,,,,,,,,,,
{16}6h[2:7],,,,,,8,1,2,,,,,,1,2,
{16}3,,,,,,2,3,4,,,,,,,,
{16}5,,,,,,4,3,2,,,,,,,,
{16}3h[2:1],,,,,,,,,,,,,,,,
{16}3,,4,,2^5[8:1],,2,1,2,,1,,8,,7,,
{16}6,,5,,7^4[8:1],,7,8,7,,8,,1,,2,,
{16}3,,4,,2^5[8:1],,1,1,2,,1,,8,,7,,
{16}6,,5,,7^4[8:1],,8,8,7,,8,,1,,2,,
{16}3,,4,,2^5[8:1],,1,1,2,1,8,7,6,,5,,
{16}6,,5,,7^4[8:1],,8,8,7,8,1,2,3,,4,,
{16}3,,4,,2^5[8:1],,1,1,2,1,8,7,6h[16:2],,,,
{32}1,2,3,4,5,6,7,8,1,2,3,4,5,6,7,8,
{32}5,4,3,2,1,8,7,6,5-1[16:1],4,3,2,1,8,7,6,
{16}5b/3h[2:14],,,,,,,,,,,,,,,,
{16},,,,,,,,,,,,,,,,
{16},,,,,,,,,,,,,,,,
{16},,,,,,,,,,,,,,,,
{16},,,,,,,,,,,,,,,,
{16},,,,,,,,,,,,,,,,
{16},,,,,,,,,,,,,,,,
{16},,,,,,,,8,,,,8<5[2:2],,,,
{16}8,,,,,,,,3,,,,3qq8[2:2],,,,
{16}3,,,,,,,,5,,,,5q7[2:2],,,,
{16}5,,,,,,,,8,,,,8>4[2:2],,,,
{16}8,,,,,,,,6,,,,6,,,,
{16}6h[2:2],,,,,,,,5,,,,5,,,,
{16}5h[4:1],,,,4h[4:1],,,,3h[4:1],,,,2h[4:1],,,,
{16}1h[2:2],,,,,,,,,,,,,,,,
{16},,,,,,,,2,
,,,2-5[8:1],,,,
{16}2/5,6,7,8,1-5[8:1],2,3,4,1-6[8:1],,,,1,,,,
{16}1,8,7,6,5-1[8:1],4,3,2,5-2[8:1],,,,5,,,,
{16}5,6,7,8,1v4[8:1],2,3,4,1v6[8:1],,,,1,,,,
{16}1,2,3,4,5,6,7,8,4,5,6,7,4,3,2,1,
{16}4-7[8:1]/8-3[8:1],,,,4/8,,,,8,7,6,5,8,1,2,3,
{16}4-1[8:1]/8-5[8:1],,,,8/4,,,,6/2,7/3,8/4,1/5,6,7,8,1,
{16}7,6,5,4,8,1,2,3,5,6,7,8,4s8[8:1],3,2,1,
{16}4b,,1,1,1,,7,7,7,,6/5,,3/4,,2/1,,
{16}8,7,6,5,4-8[8:1],3,2,1,4-7[8:1],,,,4/3,,,,
{16}4^7[8:1]/3^8[8:1],,,,3/4,,,,3,4,3,4,2,5,2,5,
{16}8,7,8,7,5,6,5,6,3,4,3,4,2,8,2,8,
{16}5-1[8:1],,,,5,,,,6/2,7/3,8/4,1/5,2,3,4,5,
{16}6b-1[8:1]/2b-5[8:1],,,,2/6,,,,8/4,7/3,6/2,5/1,4,3,2,1,
{16}8b^5[8:1]/4b^1[8:1],,,,8q5[8:1]/4q1[8:1],,,,8^5[8:1]/4^1[8:1],,,,8/4,,,,
{16}8b/4b,1/5,2/6,3/7,8-2[8:1]/4,,4,4,8b-6[8:1],,3,3,8-4[8:1],,2,2,
{16}8b,3,2,1,8,7,6,5,{32}4b,3,2,1,8,7,6,5,4s8[16:1],3,2,1,8,7,6,5,
{16}4b,,,,,,3/8,2/7,1/6,,,,7-4[8:1],8,6,8,
{16}7,,,,1,,6/1,7/2,8/3,,,,2-5[8:1],1,3,1,
{16}2,,,,8,,1/8,1/8,2/7,,,,6-1[8:1],5,7,5,
{16}6,,,,4,,4/5,4/5,3/6,,,,6,5,6,5,
{16}6,7,8,1,2,3,4,5,6/2,7/3,8/4,1/5,6,7,8,1,
{16}5,4,3,2,1/5,8/4,7/3,6/2,1/5,6/2,7/3,8/4,5,6,7,8,
{16}6,5,4,3,5,4,3,2,4,3,2,1,8,7,6,5,
{16}2,1,8,7,1,8,7,6,8,7,6,5,7,6,5,4,
{16}2,5,2,6,2,7,2,8,3,7,3,6,3,5,3,4,
{12}3b,4,4,6b,5,5,1b/3b,2,2,8b/6b,7,7,
{4}4b/5b,,,,
{4},,,,
&inote_6=(180)
{4}4h[2:1]/5,,6
,,
{4}7h[2:1]/4,,3,,
{4}1,,8,1,
{4}7,,1,8,
{4}2,,5,2,
{4}3,4,5,6,
{4}6/5,4,4/5,3,
{4}2/4,,8-4[90#16:1],,
{12}8b/1,2,3,5,6,7,1,2,3,5,6,7,
{12}1,2,3,5,6,7,1,2,3,5,6,7,
{12}2,3,4,6,7,8,2,3,4,6,7,8,
{12}2,3,4,6,7,8,2,3,4,6,7,8,
{12}3,4,3,8,1,8,3,4,3,8,1,8,
{12}4,5,4,8,1,7,4,5,4,8,1,7,
{16}5/6,,4/7,,3/8,,1/2,,3/4,,5/2,,6/1,,8/7,,
{16}8,7,8,7,8,7,8,7,1b,6b,1b,6b,1b,6b,1b,6b,
{16}2,3,4,5,6/7,5,4,3,2/1,3,4,5,6/7,5,4,3,
{16}2b/1b,,,,3,,,,4,,,,7,,,,
{16}2,,,,4,,5,,6,,,,,,,,
{16}7,,,,6,,,,5,,4,,3,,2,,
{16}3,,4,,5,,4,,8,,,,7,,,,
{16}5/4,,,,3,,,,2,,,,1,,,,
{16}2,,,,1,,8,,1,2,3,4,5/6,,7,,
{16}8,,,,6,,5,,4,,3,,6,,5,,
{16}4,,3,,2,,1,,8,,7,6,5/4,,3,,
{16}6/5,,,,5/4,,,,3/4,,,,2/4,,,,
{16}1/2,,,,7/8,,8-3[16:1]/1,,7/8-5[16:1],,,,,,,,
{16}4,,,,5,,,,6/5,,5/4,,4/3,,3/2,,
{16}4/3,,2/1,3/8,4/7,,4/7-5[16:1],,7-3[16:1]/5,,7-1[16:1],,,,,,
{16}6,,,,5,,,,5/4,,,,4/3,,,,
{16}5/4,,,,5/3,,5-8[16:1]/2,,5-2[16:1]/1,2,3,4,5,,7,,
{16}6,,,,6/5,,6/4,,6/3,,6/2,,6/2,,2/5,,
{16}2/4,,3/2,,1/2,,1/8-2[16:1],,8-4[16:1]/7,,8-6[16:1],,,,,,
{16}2-5[8:1],,,,2^7[4:1],,,,7^4[4:1],,,,4qq1[2:1],,,,
{16}8-5[8:1],,,,8,,,,6,,5,,4pp7[4:3],,2,,
{16}1-4[8:1],,,,1,,,,2-5[8:1],,,,2pp7[8:4],,,,
{16}7-4[8:1],,,,7^2[4:1],,,,2^5[4:1],,,,5qq1[4:2],,,,
{16}8-5[8:1],,,,8,,,,8^5[8:1],,8,,,,1^4[8:1],,
{16}1,,,,,,,,,,7^2[8:1],,2-7[8:1],,7-3[8:1],,
{16}3qq5[4:2],,,,,,,,5^8[4:1],,,,8^3[4:1],,,,
{16}3^6[4:1],,,,,,,,{16}3,2,1,8,7,6,5,4,
{16}3/7-4[8:1],,,,7^2[4:1],,,,2^5[4:1],,,,5pp8[2:1],,,,
{16}1-4[8:1],,,,1,,,,3,,4,,5qq2[4:3],,7,,
{16}8-5[8:1],,,,8,,,,7-4[8:1],,,,7qq2[8:4],,,,
{16}2-5[8:1],,,,2^7[4:1],,,,7^4[4:1],,,,4q8[8:2],,3,,
{16}2b-5[8:1],,,,2,,,,3^6[8:1],,6-3[8:1],,3-8[8:1],,8pp4[8:4],,
{16}7b-4[8:1],,,,7,,,,6,,,,5,,4,,
{16}3b,,,,,,,,,,,,,,,,
{16},,,,,,,,,,,,,,,,
{16},,,,,,,,,,,,,,,,
{4},,,,
{4},,,,
