&title=残響は鳴り止まず
&artist=幽閉サテライト
&first=0
&des=ImagineWind
&des_5=ImagineWind
&lv_5=12+
&inote_5=(130){4},,,,{1}4-8[2:1],
{8}4h[4:1],6,{4}7h[4:1],{8}4h[4:1],7,{4}8h[4:1],
{8}4h[4:1],8,{4}7h[4:1],{8}4h[4:1],7,{4}6,
{8}5h[4:1],3,{4}2h[4:1],{8}5h[4:1],2,{4}1h[4:1],
{8}5h[4:1],1,{4}2h[4:1],{8}5h[4:1],2,{4}3,
{8}6/4,{16}7,5,{8}7,4/6,3/5,{16}2,4,{8}2,3/5,
4/7<4[8:1],8,1-5[8:1],2,{4}6-1[8:1],6/4,
{8}2/8,{16}3,5,{8}4,5/6,7/1,{16}6,4,{8}5,4/3,
2V46[16:3],1,{4}7<1[4:1],{2}8h[4:1],
{8}5,4,3,2h[8:5],{2},{8}3,
4,5,6h[8:5],{2},{8}3,
5,4,7h[8:5],{2},{8}2,
6,4,5h[8:5],{2},{8}4,
6,3,2h[8:5],,6,{4},{8}4,
3,5,6h[8:5],{2},{8}4,
3,5,2h[4:1],,8,6,3,
{4}5h[4:1],{16}1,{8},{16}6,6>8[16:3],1h[16:3],{4},{8},3h[8:1],
1,4h[8:1],1,5h[8:1],8,6h[8:1],7,
5h[8:1],8,4h[8:1],1,3h[8:1],2,5h[8:1],1,
4/6h[8:1],8,5h[8:1],8,4h[8:1],1,3h[8:1],2,
4h[8:1],1,5h[8:1],8,6h[8:1],7,4h[8:1],8,
5/3h[8:1],8,4/6h[8:1],1,5/3h[8:1],7,4/6h[8:1],2,
4/3h[8:1],1,4/5h[8:1],8,6/5h[8:1],7,4/5h[8:1],1,
4/2h[8:3],5,6,8,6/4,1,3/5,8,
5/7h[8:3],4,3,1,{16}6,6,2,8,{4}4pp8[4:1],
1b,{8}2,3,4>1[8:1],5,6,7,
8-4[8:1],8,2>5[8:1],1,6,7,{4}8<5[8:1]*>3[8:1],
8,{8}2V41[4:1],2,1-5[8:1],8,{4}7h[4:1],
4>1[8:1],4<7[8:1],{8}4,3,5qq1[4:1],7b,
{4}8,{8}7,6,5<8[8:1],4,3,2,
1-5[8:1],1,7<4[8:1],8,3,2,{4}1>4[8:1]*<6[8:1],
1,{8}5V74[4:1],5,4-8[8:1],3,2,1h[8:1],
{4}7b,{8}6b/2b,{16}3pp8[4:1],7h[16:9],{2},{16}1,
7,2,6,3,5,4,6,2,8,3,7,4,6,3,5,
{4}6h[4:1]/1-5[8:1],{8}1,7,{16}8/4-8[8:1],{8},{16}5,{8}4,6,
7/1-5[8:1],8/2,1/3,{16}4q6[4:1],4h[16:5],{2},{16}3/5-1[8:1],
{8},{16}4,{8}5,3,{16}2/8-4[8:1],{8},{16}1,{8}8,2,
3/5,3/5,{16}6,4,7,5,{8}8h[8:1],{16}3,3h[8:1],,7,{8}7,
{4}6h[4:1]/1q5[8:1],{8}1,7,{16}8/4>1[8:1],{8},{16}5,{8}4,6,
7<4[8:1],8,4-8[8:1],3,{4}1>4[8:1]*<6[8:1],1b,
{8}8pp4[4:1],3/5h[8:1],,6,{16}7<4[8:1],{8},{16}1,{8}7,2,
3/5,6,7/4,{16}8qq1[4:1]*qq1[4:1],2pp1[16:3],{2},{4}2h[4:1]/8-4[8:1],
{8}8,2,{16}3/5-1[8:1],{8},{16}4,{8}5,3,
2/8-4[8:1],1/7,8/6,{16}5p3[4:1],5h[16:5],{2},{16}6/4p8[8:1],
{8},{16}5,{8}4,6,{16}7/1q5[8:1],{8},{16}8,{8}1,7,
6/4,6/4,{16}3,5,2,4,{8}1h[8:1],{16}6,6,,2/8,{8}2/8,
{16}7/3-7[8:1],{8},{16}4,{8}3,5,{16}6/8V24[8:1],{8},{16}6,{8}8,7,
3/8>3[8:1],2,5/8<5[8:1],6,8w4[8:1],1,{4}8b,
{8}1qq6[4:1],6/5h[8:1],,{16}4,3,2<7[8:1],{8},{16}4,{8}2,6,
5/3,2,4/6,{16}5pp4[4:1]*pp4[4:1],3qq4[16:3],{2},{8}3/5,
2,{4}1h[4:1],{8}5,6,{4}7h[4:1],
{1}4pp4[1:1]*qq4[1:1],
{4},,{8},3-6[16:1],
