&title=Galaxy Collapse
&artist=黒皇帝
&first=0.01
&des_1=SeBiAn-A
&des_2=SeBiAn-A
&des_3=SeBiAn-A
&des_4=SeBiAn-A
&des_5=SeBiAn-A
&lv_5=14
&des_6=SeBiAn-A
&des_7=SeBiAn-A
&des=SeBiAn-A
&clock_count=4
&inote_5=(270){1},
{8}
3h[2:1],,,,6h[2:1],,,,
4h[2:1],,,,5h[2:1],,,,
3h[2:1],,,,6h[2:1],,,,
4h[2:1],,,,5h[2:1],,,,
3h[2:1],,,,6h[2:1],,,,
4h[2:1],,,,5h[2:1],,,,
3h[2:1],,,,6h[2:1],,,,
4h[2:1],,,,5h[2:1],,,,
3h[4:1],,,,6h[4:1],,,,
4h[4:1],,,,5h[4:1],,,,
3h[4:1],,,,6h[4:1],,,,
4h[4:1],,,,5h[4:1],,,,
3h[4:1],,,,6h[4:1],,,,
4h[4:1],,,,5h[4:1],,,,
3h[4:1],,,,6h[4:1],,,,
4h[4:1],,,,5h[4:1],,,,
2b,
4,3,4,3,4,3,4,
2,5,2,5,2,5,2,5,
3,4,3,4,3,4,3,4,
2,5,2,5,2,5,2,
4,3,4,3,4,3,4,
2,5,2,5,2,5,2,5,
3,4,3,4,3,4,3,4,
2,5,2,5,2,5,2,5,2,5,
3b,
6,5,6,5,6,5,6,
4,7,4,7,4,7,4,7,
3,8,3,8,3,8,3,8,
4,7,4,7,4,7,4,
6,5,6,5,6,5,6,
4,7,4,7,4,7,4,7,
3,8,3,8,3,8,3,8,
2,1,2,1,2,1,2,1,2,1,
3h[8:30]/8-4[8:28],,,,,,,,,,,,,,,,,,,,,,,,,,,,,,,,
8b,,6,5,6h[8:1],,4,4,6h[8:1],,1,1,2/7,,3/8,,
4,5,4h[8:1],,6,6,4h[8:1],,2,2,4h[8:1],,3/8,,2/7,,
6,1,6h[8:1],,8,8,6h[8:1],,4,,6h[8:1],,3/5,,2/4,,
1,5,1h[8:1],,3,3,1h[8:1],,7,7,1-5[6:1],,8/1b,,,,
6,5,6h[12:1],,4,4,6h[12:1],,8,8,6h[12:1],,1,7,2,8,
3,4,3h[12:1],,5,5,3h[12:1],,1,1,3h[12:1],,8,2,
{24}2h[8:1],,8xh[384:1],E8,E7,E6,
{16}3h[8:1],,,,3,,4,,3,,6,,
{24}7h[8:1],,1xh[384:1],E2,E3,E4,
{16}6h[8:1],,,,1,,6,,1,,5,,
{24}5x,,2xh[384:1],E3,E4,E5,
{16}5hx[8:1],,,,
{24}8xh[384:1],E8,E7,E6,,,
{16}3,,3,,
{24}7xh[384:1],E7,E6,E5,,,
E2,E3,E4,,7x,6x,5x,,
E2,E3,E4,E5,E6,E7,E8,E1,
E2,E3,E4,E5,E6,E7,E8,E1,
{8}
E2/6x,,6x,,7x/4,,7x,,8x/4,,8x,,1x/5,,1x,,2x/5,,2x,,3x/5,,3x,,
4x-6<2[16:9],,6x,,8x,,,,
3x/5,,3x,,2x/5,,2x,,1x/5,,1x,,8x/4,,8x,,7x/4,,7x,,6x/4,,6x,,
5x-3>7[16:9],,3x,,1x,,,,
6x/2,,6x,,7x/2,,7x,,8x/2,,8x,,1x/2,,1x,,3x/2,,3x,,4x/2,,4x,,
3x-5<1[16:9],,5x,,7x,,,,
6,5,6h[8:1],,2,2,4,3,4h[8:1],,2,2,6,5,7h[8:1],,
{24}1xh[384:1],E2,E3,E4,,,
{16}6,,6,,
{24}2xh[384:1],E3,E4,E5,,,
E1,E8,E7,,2x,3x,4x/C,,,,,,E3,,,,,,E7,,,,,,,,,,,,
{8}
8b/1b,,6,5,6h[8:1],3,4,,6h[8:1]/4,,1,8,2/7,,3/8,,
4,5,4h[8:1],,6,3,4h[8:1],3,5,,4h[8:1]/3,,3/8,,2/7,,
6,1,6h[8:1],,2,4,6h[8:1],5,7,,6h[8:1]/4,,3/5,,2/4,,
1,5,1h[8:1],,2,6,1h[8:1],4,2,,8-4[6:1],,8/1b,,,,
6,5,6h[12:1],,3,6,6h[12:1],5,6,,6h[12:1]/4,,1,7,2,8,
3,4,3h[12:1],,5,3,3h[12:1],4,3,,3h[12:1]/5,,8,2,
{24}2h[8:1],,8xh[384:1],E8,E7,E6,
{16}3h[8:1],,,,3,,4,,3,,6,,
{24}7h[8:1],,1xh[384:1],E2,E3,E4,
{16}6h[8:1],,,,1,,6,,1,,5,,
{24}5x,,2xh[384:1],E3,E4,E5,
{16}5hx[8:1],,,,
{24}8xh[384:1],E8,E7,E6,,,
{16}3,,3,,
{24}7xh[384:1],E7,E6,E5,,,
E2,E3,E4,,7x,6x,5x,,
E2,E3,E4,E5,E6,E7,E8,E1,
E2,E3,E4,E5,E6,E7,E8,E1,
{8}
E2/Ch[8:1],,,,
(75)
{16}1<1p7[8:16],,,,,,,,,,,,,,,,,,,,,,,,,,,,,,,,,,,,
5h[8:8],,,,,,,,3q4[8:2],,,3,,,,,,,E3/E7,,C,,,,
(150)
2pp5[8:5],,,,2,,,,6h[4:1],,,,,,,,
8qq5[8:5],,,,8,,,,3h[4:1],,,,,,3,,
E6,,E7,,E8,,E2,,E3,,E4,,E1,,C,,
4<7[4:1],,,,7>2[4:1],,,,2>2[8:5],,,,
7h[8:2],,,,,,,,,,,,
E6,,E7,,E8,,E1,,4h[8:2],,,,
{12}6,5,6,
{16}5h[4:1],,,,7,,7,,
7h[8:3],,,,,,C,,,,,,2,,3,,4/5h[4:1],,,,6h[4:1],,,,7h[4:1],,,,
1h[16:1],,1h[16:1],,
(165)
8b,,7,,6,,5,,4,,3,,2,,1,,
(180)
8b,,7,,6,,5,,4,,3,,2,,1,
(195)
8b,,7,,6,,5,,4,,3,,2,,
(210)
1b,,8,,7,,6,,5,,4,,3,
(225)
2b,,1,,8,,7,,6,,5,,
(240)
4b,,3,,2,,1,,8,,7,,
(255)
6b,,5,,4,,3,,2,,1,,
(270)
8b,,7,,6,,5,,4,,3,,
(285)
2b,,1,,8,,7,,6,,5,,
(300)
4b,,3,,2,,1,,8,,
(315)
7b,,6,,5,,4,,3,,2,,
(330)
8b,,7,,6,,5,,4,,
(345)
3b,,7,,6,,5,,
(360)
4b,,1,,2,,3,4,5,6,
(375)
8b,7,6,5,4,3,2bx,1,8,7,
(390)
6,5,4,3,2bx,1,8,7,
6,5,4,3,2bx,1,8,7,6,5,
(75)
1bx-5b[2:1],,,,,,,,,,,,
7h[4:1],,,,
(150)
{16}
2-4[12:1],,1-5[12:1],,8/2,,
1,,4>1[12:1],,5,,4/6,,7,,
7-5[12:1],,8-4[12:1],,1/7,,
8,,5<8[12:1],,4,,3/5,,2,,
2-4[12:1],,1-5[12:1],,8/2,,
1,,4>1[12:1],,5,,4/6,,7,,
7<4[12:1],,4v7[12:1],,3/7,,
1>4[12:1],,1<6[12:1],,1-5[12:1],,1,,1b,,
4-8[12:1],,3-1[12:1],,4/1,,
3,,7<4[12:1],,6,,7/1,,2,,
3-7[12:1],,4-6[12:1],,3/6,,
4,,1>4[12:1],,2,,1/7,,6,,
5-1[12:1],,6-8[12:1],,5/8,,
6,,2>5[12:1],,3,,2/8,,7,,
6v1[12:1],,1<6[12:1],,6,,
4>1[12:1],,4<7[12:1],,4,,4,,1b,,
(300)
7b,6,5,4,2,,8,,2,,8,,3,,4,,2,,4,,
8,7,6,5,2,,2,,7,,1,,7,,1,,8,,8,,
2,3,4,5,7,,7,,8,,6,,5,,6,,2,,2,,
7,6,5,4,1,,1,,2,,8,,3,,7,,4,,4,,
8,7,6,5,3,,3,,4,,2,,4,,1,,5,,5,,
1,2,3,4,7,,7,,1,2,3,4,7,6,5,4,
3,2,1,8,7,,2,,4,,3,,5,,4,,7,,7,,
4,3,2,1,6,,6,,1,,5,,2,,4,,3,,3,,
5,6,7,8,2,,2,,8,,3,,7,,4,,6,,6,,
4,3,2,1,
{48}
7,,,,8,,,,7,,,,8,,,,7,,,,8,,,
6,,,,1,,,,6,,,,1,,,,6,,,,1,,,
5,,,,2,,,,5,,,,2,,,,5,,,,2,,,
4,,,,3,,,,4,,,3h[48:4],
{16}
,,5,6,7,8,1,,4h[8:1],,1,8,7,6,5,,
3,2,1,,7,6,5,4,
{24}
1,2,3,4,5,6,7-3[6:1],8,
1,2,3,4,
(160)
{384}7bx<7q1b[8:30]`Cf,,,,,,,,,,,,,,,,,,,,,,,,
{16},,,,,,,
{4},,,,,,,,,,,,,,
{16}2h[8:5],,,,,,,,,,4h[4:1],,,,3,,3h[8:5],,,,,,,,,,
5h[4:1],,,,4h[8:1],,6,,5>2[4:1],,,,5/6h[4:1],,,,,,7h[4:1],,,,
3h[2:1],,,,,,,,8h[8:3],,,,,,,,
{4}3bh[2:1]/5bh[8:7],,,,
4h[8:7]/6h[2:1],,,,
2h[2:1]/5h[8:7],,,,
7h[4:3]/4h[2:1],,,,
1h[8:7]/7h[2:1],,,,
3h[8:7]/8h[2:1],,,,
6h[4:3]/1h[8:3],
{16},,,,,,,,,,
{8}5/6h[4:1],,5,4,3,2,6/1q3[8:3],7,8h[8:17],,,,,,,,,,,,,,,,,,,
E
