&title=WHITEOUT
&artist=かねこちはる
&first=-0.1
&des=SAURB
&lv_5=14+
&inote_5=(198)
{2},{4},,
{48}1b,2-4v5-7-5v4-2b[1:3]/8,37,46,5bh[1:3],,,,,,,,
{4},,,,,,,,,,,,,,,
{32}2/7>7b[1:2],3,4h[1:2],,,,,,
{4},,,,,,,,,,,
{16}4,5,4,5,3V15[4:1],,7,,Cf,,,,,,,,
{16}7-4[4:1]/2,,,,4-8[4:1],,,,1,,1-5[5:1],,,,,,,,,,,,
{16}6,5,7-4[8:1],,,,,,,,3-1-5[2:1],,,,1,,,,7h[4:1],,,,,,,,{32}8,7,6h[32:5],,,,,,
{4}4-8[8:1],6-1[8:1],2h[8:1],
{8}5/7,5,4/6,6,3/5,3,2/4,4,
{8}1/5,1,2/6,6,3/7,3,4/8,8,
{16}5,7,5,7,4,6,4,6,3,5,3,5,2,4,2,4-8[8:5],2bh[4:3],,,,,,,,,,,,,,,,
{24}17,26,35,4,,,{8}1-5[8:1]/7,2,1/3v8[8:1],,3/7-4[8:1],,71,2,3,{24}5b-1[8:1],6,7,8,,,5b,,,{8}8-4[8:1],7,6-1[8:1]/8,6,3,2-5[8:1],,2/7-4[8:1],,1-7[8:1]*-3[8:1]/7,,1-5[8:1],,15,,{8},6-1[8:1],6,4-8[8:1],4,{16}8,7,6,5,1,2,3,4,6,7,8,1,5,4,3,2,6,5,4,3,2,1,8,7,6/2,1,8,7,6,5,4,3,{8}2/6-1[8:1],6,4-8[8:1],4,7-4[8:1],7,{16}3,2,1,8,5,6,7,8,2,3,4,5,1-5[8:1],8,7,6,1b-3-5-7-1[2:3]/Cf,,,,,,,,C,,,,,,,,7h,,,,,,,,C,,,,,,,,5h[8:1],,,3h[8:1],,,6h[8:1],,,2h[8:1],,,7-3[8:1],,8,,C/1h[2:1],,,,,,{16}4,5,6,7,81,2,3,4,56,,
{8}74,7,36,3,52,5,14,1,27,3,47,6,52,1,27,36,
{16}4b/5,3,2,1,4,5,6,7,1,2,3,4,1,8,7,6,
{16}4b/5,3,2,1,7/8,6,5,4,1b,2,3,4,5/6,7,8,1,
{1}2b>2[2:6]/3,
{1}2h[1:0],
{1}8h[1:0],
{2},
{8},,{16}3,5,3,5,4h[1:1],,,,,,,,,,,,,,,,
{16}7,,7,,2,,2-6[4:1],,,,6V41[2:1],,,,7h[2:1],,,,,,,,,,,,,,,,,,
{16}B2,,B6,,,,B2/B3,,,,B6/B7,,,,,,
{8}5,4>1[4:1],,6h[8:3],,,4,5>1[4:1],,3h[8:3],,,7,5-7-1[4:1],,2,,3,3-5-1[2:1],,
{16}8,,,7,,,6,,5w1[4:1],,,,,,,,,,,,
{8},,1-5[8:1],1,8,7,6-1[8:1],6,4,3,2V48[4:1],2,8,7,6,5-1[8:1],4,5,2-5[8:1],2,8-4[8:1],8,1,2-5[8:1],8,2,{16}6,7,8,1,5,4,3,2,18,7,6,5,1,2,3,4,
{8}6,7-3[8:1]b,,4h[8:3]b/7b,,,7,8-3[8:1]b,,8b/3,,,8,1-4[8:1]/7-4[8:1],,1b/7b,,
{16}2-5[8:1],8,2,8,2,,7,8,6,1,5,2,4,3,8h[8:1],,,6h[8:1]/4h[8:1],,,2h[8:1],{32}8b,7,6,5-1[8:1]b,,,,,,,,,,,,,,,28,37,46,5>1[2:1],,,,,{4}7,7,7,6-8-2[2:1]/3,4,4,4,3V15[2:1]/7,1,8,7,5V73[2:1]/4,4,3V15[2:1],1,4V27[2:1],4,7V51[2:1],5,1,8V64[2:1],8,2,{8}3V15[4:1],3,8,8,7,7,4,4,{16}5,,5,,3,4,2h[8:1],,6,5,7h[8:1],,1,8,2,,37,,
{16}3,5,3,5,2,4,2,4,1,2,3,4,6/5,,7,8,
{16}6,1,5h[8:1],,2,4,3,5,4h[8:1],,6,5,7h[8:1],,3,4,
{16}2,5,1h[8:1],,7,8,6,1,5h[8:1],,2,4,3,,
1b/8b,,6,5,7,,12,,3b/8b,,6,4,6,4,7h[8:1],,{8}1b,1,2/4,2,3/8,3,4/6,4,3/5,5,1/6,6,5/7,7,2/8,8,
{16}18,2,3,4,2,3,4,5,8,7,6,5,7,6,5,4,{32}1b,2,3,4,5,6,7,8,1,2,3,4,5,6,7,8,1,2,3,4,5,6,7,8,1,2,3,4,5,6,7,8,
{2}1b>1[1:3]/C,,7h,,4h,,Ch[2:1],,
{16}3-1-5[4:1],,1-5[8:1]*-5[8:1],,,,7h[8:3]/Cf,,,,,,
2V48[4:1],,4-8[8:1]b,,,,6h[8:3]/Cf,,,,,,2,,7/1>4[8:1],,,,15,,5,6,7,8,1,2,3,4,15,26,37,48,5,6,7,8,
{16}5,3,5,3,6,4,6,4,8,7,6,5,7,6,5,4,8b,7,6,4/5,3,2,1/8,7,6,4/5,3,2,1/7,6,5,3/4,
2,1,7/8,6,5,1/4,2,3,4/6,7,8,1/2,3,4,5/6,7,8b-4[8:1]b,,,,
{16}1b/8b/Cf,,2-6[8:1],,1,,2>5[8:1]/6,,7,7,2,,8-4[8:1],,7-5[8:1],,8,,7,,3,2,1,8,7-3[8:1]b,6,5,4,3/7/Cf,,,,1b/2b,,8-4[8:1],,7,1,8-6[8:1],,2,2,8,,1-5[8:1]b,2,3,,7<4[8:1]/1,,8,,2-8[8:1]b/7-3[8:1],,3,,2-5[8:1]/7,,,,2b/5,,6,,6,,2,3,
{16}46,7,8-4[8:1]b,2,,,18,,1-5-1[4:1]b,,,,1/7h[8:1],,,,8,,8,,2-6[8:1],,6V41[4:1]b,,2/7,,,,8,,8-4[8:1],,,,2-5[8:1]b/8,,1,,2/6<1[8:1],,6,,{24}1b,2,3,4-8[8:1]b,,,
{16}4x,,7-4[8:1],,7,,1-5[8:1]b,,2,,3/1/Cf,
{16},,,28,,7-3[8:1],,8,,7<4[8:1]b/3,,2,2,7,,1-5[8:1],,2-6[8:1]b,,1,,2,,4,3,2,1,8-4[8:1],7,6,5,4/8/Cf,,,,8b/7b,,1-5[8:1],,2,8,1>4[8:1]b,,7,7,1,,8<5[8:1],,7,,84,3,2,1,8,7,6,5,48,7,6,5,{8}2,2,2/4,2,7/1,7,7/5,7,{16}2,1,3,8,4,7,5,6,{24}5,4,3,2,1,8,7,6,5,4,3,2,1bx-5[8:1]/8,,,,,,
{8}1/2-6[8:1]b,3,2,8-4[8:1],7-3[8:1]b,8,7,2,17,{16}2-5[8:1],5,2,5,2,,6,,78,,
{16}3-8[8:1]b,5,3,5,3,,6,,7-4[8:1],,8-3[8:1]b,,7,,8,,7b,7,,56,,47,,38,,12,8,,4,,4,,1-5[8:1],,,,
{16}1b/5b,6,7,8,4,3,2,1,87,6,5,4,3/8x,1,2,3,4/8x,7,6,5,{40}84,,1,,2,,3,,4,,57,,,,,61,,,,,
{16}2b,8,2,8,
{32}3,,5,,4,,7,,5,,6,,2,,4,,3,,7,,8,,7,,{32}1b,2,3,4,5,6,7,8,1,2,3,4,5,6,7,8,1/5b,6/2,73,84,1,2,3,4,5,6,7,8,1,2,3,4,5b>1q3b[1:4]`1b<5q7[1:4]`B1`Cf`B5,
&inote_6=
