&title=Danger Danger
&artist=FZMZ feat. icy
&first=0
&des=yuzuu
&lv_5=12+
&inote_5=(206){1},
{8},,,,,,5,,
{8}4h[4:1],,,,4h[4:1],,,5,
{8}4h[4:1],,,6,4h[4:1],,,,
{8}4h[4:1],,6,6,4h[4:1],,,,
{8}4h[4:1],,,5,4h[4:1],,,,
{8}4h[4:1],,,5,4h[4:1],,,6,
{8}4h[4:1],,,7,,65,,4/5p4[8:7],
{8},,,,,,,,
{8}3h[4:3],,5,5h[8:3],,,,,
{8},,,,2b/6b,2b-5[8:1]/6b-1[8:1],,,
{8},4-2[8:1],3,5,6-8[8:1],7,5,,
{8}2-6[8:1],6,2,,8-6[8:1],4-2[8:1],8,4,
{8},5-7[8:1],6,4,3-1[8:1],2,4,,
{8}7-3[8:1],3,7,,8-3[8:1],4-7[8:1],8,4,
{8},1-3[8:1],2,8,7-5[8:1],6,8,,
{8}3-7[8:1],7,3,,5-7[8:1],1-3[8:1],5,1,
{8},8-6[8:1],7,1,2-4[8:1],3,1,,
{8}6,7,8z4[8:3],,4,,,,
{8}3,3h[4:1],,4h[4:1],,5h[4:1],,6h[4:1],
{8},7,,6,4,5,4,5,
{8}3h[4:1],,4,,2,2h[4:1],,1<4[8:4],
{8},4,,3,,2,2h[4:1],,
{8}7h[4:1],,5h[4:1],,4h[4:1],,2,2h[4:1],
{8},4h[4:1],,5h[4:1],,7,7h[4:1],,
{8}1-6[4:1],,6-2[4:1],,2>5[4:1],,5-1[4:1],,
{8}1,,8w4[8:1],8,,,,,
{8}2,2-5[8:1],8,8,,7-4[8:1],7,1-4[8:1],
{8},5-1[8:1],,2>6[4:1]*<6[4:1],,,,,
{8}7,7-4[8:1],1,1,,2-5[8:1],2,8-5[8:1],
{8},4-8[8:1],,7<3[4:1]*>3[4:1],,,,,
{8}2-5[8:1],5-3[8:1],2,7,6-1[8:1],1-7[8:1],6,3,
{8}4-6[8:1],6-2[8:1],4,8w4[8:1],,,,,
{8}8-3[4:1],,3-7[4:1],,7<4[4:1],,4-8[4:1],,
{8}8,,,{16}3,4,{8}5,,3-8[8:1]/7-4[8:1],,
{8}3b/7b,,,,,,,,
{8}35,,,35,,,64,,
{8}6h[2:1]/4h[2:1],,,,,,,,
{8}46,,,46,,53,53,,
{8}3/5h[8:3],,,4,,2,3,4,
{8}5h[8:3],,,4,,2,3,4,
{8}5h[8:3],,,4,,2,3,4,
{8}5h[8:3],,,4,,2,3,4,
{8}5,6,,18,18,,6,5,
{8}3,24,,18,18,,3,4,
{8}6,57,,18,18,,45,,
{8}6b/2bv4[8:3]*<6[8:3],,,,,,,,
{8}2qq1[4:1],,1<5[4:1],,5qq4[4:1],,4>5[8:3],,
{8},,,,8pp1[4:1],,1<5[4:1],,
{8}5qq4[4:1],,4<3[8:3],,,,,,
{8}4w8[8:1],,4,,2-5[8:1]/6-3[8:1],,2<6[4:1]/6<2[4:1],,
{8}2V41[4:1]/6V47[4:1],,,,,,1pp1[4:1]/7qq7[4:1],35,
{8}1<4[16:5]/7>4[16:5],,,,,,{32}2b,3,4,5,6,7,8,1,
{8}2<3[8:3],,2b/4b,,,,1,,
{8}3-6[8:1]/7-2[8:1],,3b/7b,,1<6[8:1]/5>2[8:1],,1b/5b,,
{8}7pp8[4:1],,8>4[4:1],,4pp5[4:1],,5<4[8:3],,
{8},,,,1qq8[4:1],,8>4[4:1],,
{8}4pp5[4:1],,5>6[8:3],,,,5-8[8:1],,
{8}5-2[8:1],,5,,7-4[8:1]/3-6[8:1],,7>3[4:1]/3>7[4:1],,
{8}7qq8[32:13]/3pp2[32:13],,,,,,,,
{8}2-5[8:1]/8-5[8:1],,28,,4V61[32:9]/6V41[32:9],,46,,
{8},{32},,,,7,,1,,7,,2,,{16}7,3,7,4,7,5,7,6,
{8}7bw3[8:1],,,,5bw1[8:1],,,,
{8}37,56,,56,3b/8b,,,,
{8}52,43,,43,6b/1b,,,,
{8}3-8[8:1]/4,,7,,3-8[8:1]/4,,7,,
{8}6-1[8:1]/5,,2,,6-1[8:1]/5,,2,,
{8}2-5[8:1]/8,,6,,7-4[8:1]/1,,3,,
{8}2-5[8:1]/1,,6,,7-4[8:1]/8,,3,,
{8}1b/2b,,3qq2[8:2]/7qq6[8:2],26,3b/7b,,,,
{16}3,4,2,4,3,4,2,4,3,4,2,4,3,4,2,4,
{8}3-6[8:1],,5-8[8:1],,7-2[8:1],,1-6[8:1],,
{8}3-8[8:1],,5-2[8:1],,7-4[8:1],,1w5[8:1],,
{8}1b,,,,,,,,
{8},,,,78,7-5[8:1]/8-4[8:1],1,78,
{8},2<7[8:1],8,2,6>3[8:1],4,6,,
{8}1-5[8:1]/2-4[8:1],,1b/2b,,78,7q6[4:1]/8>5[4:1],6,7b/8b,
{8},,,,,
E
