&title=背叛的愛麗絲
&artist=gumi/MATR
&first=0.03
&des=ruime/普利凯特
&des_5=ruime/普利凯特
&lv_5=14
&inote_5=(150){4},{16},,1,2,3,4,5,6,7,8,,1,
2,1,{8}6,2,6,1,7,2,6,
2,7,2,{16}6,2,6,2,,6,5,6,{8}3,
6,2,6,2,6,2,7,2,
{16}7,1,,6,,3,,3,,6,,2,,6,,2,
4,3,7,2,8,1,6,3,5,2,6,2,7,3,6,3,
4,1,6,1,7,2,6,8,1,4,6,3,3,6,2,7,
2,6,3,5,3,1,7,1,6,3,6,2,5,2,6,2,
3,5,2,7,8,7,2,1,2,7,8,7,2,1,2,7,
8,7,2,1,2,7,8,7,2,1,2,7,8,7,2,1,
2,7,8,7,2,1,2,7,8,7,2,1,2,7,8,7,
2,1,2,7,8,7,2,1,2,7,8,7,2,1,2,7,
8,7,2,1,2,4,3,4,7,8,7,3,2,3,7,8,
7,2,1,2,,,4,3,4,3,4,3,4,3,4,3,
4,3,4,3,4,3,4,3,4,3,4,1,2,3,4,5,
6,7,{8}8,{16}7,6,5,4,3,2,,1,2,3,4,5,
6,7,8,6-3[16:0],,,,6,{4}1s5[16:1],1,
{16},,7h[8:1],5h[8:1],,,1h[8:1],3h[8:1],,,7h[8:1],5h[8:1],,,7,5,
{8}2,{16}6,3,{8}6,{16}2,5,3,6,2,5,1,1-6[8:1]/7-3[8:1],{8}1-4[16:1],
{16},7/1,,,,,6/2,6h[16:5]/2h[16:5],,,,,,5,8,3,
{8}B2f,B5f,{16}E4f,,,Cfh[16:3],,,,,,,1,2,
3,7,6,5,,3,4,5,,6,5,4,,6,7,6,
2,1,2,6,7,6,2,1,2,6b,,6b,,6b,,6b,
,,,,2,4,8,3,,7,,3,,5,{8}1<1[16:5],
,,,,Cfh[16:5],{16},,,,2,4,
2,6,,7,,6,{8}2,{16},1,,6,2,2,7,1,
6,3,6,2,6,2,1,6,,1,7,2,,7,3,2,
4,6,2,1,4,7,,6xh[4:1],2xh[4:1],,,,,B4f,,,2x,
4x,5x,1,4,7x,2x,{64}6,,,2x,,,{32}5x,{64},,,7x,,,,3x,,,,,{16}2bx,4bx,6bx,{32}8bx,2bx,
,4bx,,3bx,,7bx,,6bxV84[32:3],,,,,,,,6bx,,,{16}1bxp3[16:1],,,,1bx,,7bxq1[8:1],
,,,7bx,{32},,,,,1bx,2bx,3bx,4bx,5bx,6bx,7bx,8bx,1bx,2bx,3bx,4bx,5bx,6bx,7bx,{8}8bx,
{16}6bx,2bx,,,,1,5,2,{8}6,{16}3,{32}1,7,,,{16}6,{8}2/3,
,1/2,{16}6/7,,,1/2,,6/7,,1/2,,7/8,{32},,2,3,
{8}4,{32}6,5,{16}4,{32},,1,2,{8}3,{32}7,6,{16}5,{32},,,,,2,3,4,,,{16}6,
5,6,3,2,3,5,6,5,3,2,3,6,7,5,2,1,
2,7,2,4,{8}4,{16}6,7,6,{32},,,,3,2,{16}3,6,{32}7,5,,,{16}3,
2,3,8,7,6,,7,8,7,2,1,2,2,7,8,
7,2,1,2,7,8,7,2,1,2,7,8,7,2,1,2,
7,8,7,2,1,2,7,8,7,2,1,2,7,8,7,2,
1,2,7,8,7,2,1,2,7,8,{8}7,{16}6,5,6,5,
{8}6,7/1,3/7,3/7,{16},7/2,4,8,4,7,1,7,
3,2,3,6,7,7,3,2,3,7,8,7,2,1,2,4,
3,4,3,4,3,4,3,4,3,4,3,2/4,3,6,8,4,
7,5,3,1,3,4,3,6,{32}7,,,,,,,,,,,1s5[16:1],,,,,,,,1,
,,,,,,,,,,,7h[8:1],,5h[8:1],,,,,,1h[8:1],,3h[8:1],,,,,,7h[8:1],
,5h[8:1],,,,,,7,,5,,2,,,,6,,3,,6,,,,2,,5,,3,,6,,2,
,5,,1,,1-6[8:1]/7-3[8:1],,1-4[16:1],,,,,,7/1,,,,,,,,,,,{16}2/6,6h[16:5]/2h[16:5],{32},,,,,,,,,5,
,,,3,,B2f,,,,B5f,,,,E4f,,,,,,Cfh[16:3],,,,,,,,1q4[16:1],
,,,,,,,1,,,{8}7>1[32:5],,7,{16},,2,4,
2,6,1,7,3,6,{8}2,{16}5,1,4,6,2,2,7,1,
6,3,6,2,6,2,1,6,7,1,7,2,,7,3,2,
4,6,2,1,4,7,,6xh[4:1],2xh[4:1],,,,,1x,2x,5x,
2x,4x,{64}5x,,,1x,,,,,{16}1x,7x,2x,5,,2,6,2,4,7,3,6,
2,3,6,6,{8}3,{16}5,6,5,6,5,6,{32}5,,,7,,6,,3,
,2,,3,,,{16}7bx,,2bx,,6bx,{32},2bx,,,,5bx,,,{8}B6f,B3f,
{16}B1f,B7f,,,{4}Cfh[16:3],{32},6bxV84[32:3],,,,,,,,6bx,,,{8}1bxp3[16:1],
,1bx,{16},6,3,5,{32}7bx,,,,,,,1bx,2bx,3bx,4bx,5bx,6bx,7bx,8bx,1bx,
2bx,3bx,4bx,5bx,6bx,7bx,{16}8bx,,6bx,{32}2bx,,,5bx,,,,,{16}1,5,2,6,3,3,
{8}1,6/5,{16}1/2,6/5,,2/1,,,1-6[8:1]/7-3[8:1],1-4[16:1],,,{8}7/1,
{16},,,2bx/6,{4}6h[16:5]/2h[16:5],{32},,,,1,2,{16}3,,8,7,6,
,1,2,3,7,8,7,2,1,2,7,8,7,2,1,2,
7,8,7,2,1,2,7,8,7,4,2,6,7,6,,2,
1,2,6,{32}7,5,,,{16}3,{32}3,,,1,2,3,4,5,6,7,8,1,2,3,4,5,6,7,8,1,
2,3,4,5,6,7,{16}8,,1,2,1,{8}6,2,6,1,
7,2,6,2,7,2,{16}6,2,6,2,
,6,5,6,{8}3,6,2,6,2,6,
2,7,2,{16}7,1,,6,,3,,3,,6,
,2,,6,,2,4,3,7,2,8,1,6,3,5,2,
6,2,7,3,6,3,4,1,6,1,7,2,6,8,1,4,
6,3,3,6,2,7,2,6,3,5,3,1,7,1,6,3,
6,2,5,2,6,2,3,5,2,6,7,6,2,1,2,6,
7,6,2,1,2,7,6,7,3,2,3,8,7,8,3,4,
3,7,8,7,2,1,2,7,6,7,4,3,4,2,3,2,
6,5,6,4,5,4,3,2,3,8,7,8,4,3,4,3,
2,3,6,7,6,3,2,3,7,8,7,4,3,4,7,8,
7,3,2,3,6,7,6,3,2,3,6,5,6,3,4,3,
4,3,4,3,4,3,4,3,4,3,4,3,4,3,4,3,
{8}4,{16}2,3,6,7,6,3,2,3,6,5,6,3,4,3,
4,3,4,3,4,3,4,3,4,3,4,3,4,3,4,3,
{32}4,,,1v6[32:3],,,,,8,,,1,,,,,{4}5v8[16:3],5,
{16},E6f,,B3f,,B8f,,B2f,{32}7x,,,3x,,,{16}6x,{8}2x,{16}8,2x,
4x,2,7,5x,1,8,1,3x,{32}5x,,,2bx,,6bx,,,2bx,,,6bx,,,{16}2bx,
{32},6bx,,2bx,,6bx,,1bx,,,{16}1-6[8:1]/7-3[8:1],{8}1-4[16:1],{16},7/1,,,,,2bx/6,6h[16:5]/2h[16:5],
{32},,,,,,,,,,,,,7,6,5,,,,,,,2,3,{8}4,{16}7,8,
7,2,1,2,7,8,7,2,1,2,7,8,6,2,1,2,
7,8,7,2,1,3,{32},,,,1bx,2bx,3bx,4bx,5bx,6bx,7bx,8bx,1bx,2bx,3bx,4bx,5bx,6bx,7bx,8bx,
1bx,2bx,3bx,4bx,5bx,6bx,7bx,8bx,1bx,2bx,3bx,4bx,5bx,6bx,7bx,8bx,,,,,,,,7V13[32:3],,,,,,6qq2[8:1],,7,
,,,,,6,,,,,,B4f,,,{16}B2f,{32}B8f,,,E6f,,,,,,,,,,2>5[32:5]/7V13[32:5],,,,,,,,2/7,
,,,,,,{8}7bxq7[32:3],,7bx,{16},,,7bxs3[32:3],
,,,7bx,,,,2bx,7bx,5bx,{32},B6f,,,,B2f,,,,,,,,1-6[8:1]/7-3[8:1],
,1-4[16:1],,,,,,7/1,,,,,,,,,,,{16}6/2,6h[16:5]/2h[16:5],{32},,,,,,,,,,,,7,
6,5,B2f,,,,B5f,,2,3,4/E4f,,,,2bx,,6bx,,2bx,,7bx,,,,,1x,2x,
3x,4x,5x,6x,7x,8x,,,6x,5x,4x,3x,2x,1x,,,{16}2bx,3bx,4bx,5bx,6bx,7bx,8bx,1bx,
2bx,3bx,4bx,5bx,6bx,7bx,{8}8bx,{32},1-6[8:1]/7-3[8:1],,1-4[16:1],,,,,,7/1,,,,,,,,,,,{16}6/2,
6h[16:5]/2h[16:5],,,,,,Cfh[16:3],
E
