&title=abnormalize
&artist=凛として時雨
&first=-0.99
&lv_5=14
&des=Doraemon Television
&inote_5=(175)
{1},
{1},
{8}3,4,5,6h[8:5],,,,,
{8}3,4,5,6h[8:5],,,,,
{8}2,3,4,5h[8:5],,,,,
{8}1,2,3,4z8[8:4],,,,,
{8}4,4,7,6h[8:5],,,,,
{8}3,3,6,5h[8:5],,,,,
{8}2,2,5,4h[8:5],,,,,
{8}2,3,4,5s1[8:4],,,,,
{8}2,,3/8,7,4/6h[4:1],,4,,
{8}2,,3/8,7,4/6h[4:1],,4,,
{8}2,,3/6,7,4/8h[4:1],,5,,
{8}5h[8:1],8,4h[8:1],7,3h[8:1],6,2h[8:1],5,
{8}1bpp5[2:1]/4b,
,6,6,7,7,8,8,
{8}1bqq6[2:1]/5b,,4,4,3,3,2,2,
{16}1,5,1,5,2,6,2,6,3,7,3,7,4-8[8:1],8,4,8,
{8}4b<2[16:7]*>6[16:7],,,,,,,3/5,
{16}2b/7b,,6,5,7,,2,,1-5[8:1]/5,,5-2[8:1],,6,,7,,
{16}8b,,3,4,2,,7,,6-1[8:1]/1,,1-5[8:1],,2,,3,,
{16}4b,,7,8,6,,2,,3-8[8:1]/8,,8-4[8:1],,7,,6,,
{16}5b,,2,1,3,,8,,5,7,4,6,3,5,2,4,
{8}1b-6[8:1],,1/3,,1<6[8:1],2,1/3,,
{8}3>8[8:1],3,4,5,6-3[8:1],7,6/8,,
{8}8-3[8:1],,6/8,,8>3[8:1],7,6/8,,
{8}5-1[8:1],5,4,3,2>8[4:1],4,2/5,,
{8}4-7[8:1],,4/2,,4<7[8:1],3,2/4,,
{8}2>5[8:1],2,1,8,7-2[8:1],6,7/5,,
{8}1-6[8:1],2,1/3,,8-3[8:1],7,6/8,,
{8}6b/4b<2[4:1],,8/4,,5b>7[4:1],,1/5,,
{16}4b,,,,1h[1:0],4,2h[1:0],8,3-5[8:1],,5-2[8:1],,3h[1:0]/6,,7,,
{16}8,,2h[1:0],1,3h[1:0],,5,,7-4[8:1],,4-8[8:1],,7/3h[1:0],,1h[1:0],,
{16}2h[1:0],,3h[1:0],3h[1:0],8,,6,,1-6[8:1],,6-8[8:1],,5/1h[1:0],,4,,
{16}6,,7,7,1h[1:0],,2h[1:0],8,4h[1:0],1,3h[1:0],5,2h[1:0],4,3h[1:0],8,
{16}2b,,3h[1:0],4,1b,,4h[1:0],6,2b,,5h[1:0],6,1b,,8,6h[1:0],
{16}1b>4[8:1],,4,4,1b-6[8:1],,5,5,1b-4[8:1],,4,4,1b,,5,5,
{16}1b,4,2h[1:0],7,3h[1:0],1,5h[1:0],8,2b,6,3h[1:0],8,4h[1:0],6,2h[1:0],7,
{16}1bV73[4:1],,,,1/6,,5,,4b<1[16:3],,,,4,,,,
{1}4bw8[8:11],
{1},
{8}3,,4,4,,5,,6,
{8},6z2[16:7],,,,,,,
{8}6b-8[8:1],6,5,4,3b-1[8:1],3,4,5,
{8}6b<1[8:1],6,5,4,3b<6[8:1],3,2,1,
{16}8b,4,8,4,7b,3,7,3,6b,2,6,2,5b,1,5,1,
{16}4b,,2h[1:0],1,3,,8,,7,4h[1:0],8-4[64:7],3h[1:0],5z1[1:1],2h[1:0],6h[8:9],,
{1},
{1},
{8}5/3,5,1/6,6,7/4,4,8/3,3,
{8}2/5,5,7/3,7,{16}4,8,4,8,{32}4b,3,2,1,8,7,6,5,
{16}4bV28[8:1],,,,4b/7b,,5,,6bV42[8:1],,,,6b/1b,,8,,
{16}7bV15[8:1],,,,7b/1b,,2,,3b<1[16:3],,,,3b/7b,,,,
{16}4b,2h[1:0],4,2h[1:0],5b,3h[1:0],5,3h[1:0],6b,4h[1:0],6,4h[1:0],7b,5h[1:0],7,5h[1:0],
{16}8b,5h[1:0],8,4h[1:0],8,3h[1:0],8,2h[1:0],{32}8b,7,6,5,4,3,2,1,8-4[8:1],,,,,,,,
{16}8b/1b,,,,2pp1[4:1],,7,,2/6,,5<1[8:1],,,,5/2,,
{16}3-6[8:1],,,,1-4[8:1]/3,,7,,1-6[8:1]/8,,,,1/3,,,,
{16}2b,5,1h[1:0],7,4h[1:0],1,3h[1:0],6,1<4[4:1],7,2h[1:0],5,3h[1:0],,,,
{12}1h[1:0],3,2h[1:0],8,6h[1:0],7,2h[1:0],4,3h[1:0],8V25[8:1],,,
{16}8b/6b,,7,,8bV64[8:1],,,,8b/4b,,3,,2bV84[8:1],,,,
{16}2b/8b,,7,,6b>8[16:3],,,,6b/3b,,,,4,,,,
{16}4b,6,4h[1:0],6,3b,5,3h[1:0],5,2b,4,2h[1:0],4,1b,3,1h[1:0],3,
{16}1b,4,1h[1:0],5,1h[1:0],6,1h[1:0],7,{32}1b,2h[1:0],3h[1:0],4h[1:0],5h[1:0],6h[1:0],7h[1:0],8h[1:0],1-5[8:1],,,,,,,,
{16}1b/8b,,,,7,,6,,5pp4[4:1],,,,5/3,,,,
{8}1h[4:1],3,4h[8:1],1h[1:0],2h[4:1],,5h[16:1],,
{8}3b-6[16:30]/6b,,,,,,,,
{8},,,,,3-6[8:1],,,
{1},
E
