&title=なぜ?謎?!ANSWER
&artist=熊田茜音 & 増井優花
&first=-0.03
&des=Rr19
&des_5=
&lv_5=13+
&inote_5=(166){4},{8},,,,,,,,,,,,,,
{2}6-1[8:1]*-4[8:1],3-5[8:1]*-8[8:1],
{4}6h[8:1],{8}2v4[8:1],3,{2}2<7[8:1],
2-4[8:1]*-7[8:1],6-3[8:1]*-8[8:1],
{8}6>4[8:1],4>2[8:1],2<8[8:1],8<8b[16:5],,,,,{4}4-2[8:1],
5,8-6[8:1],1,
{8}7,5,3,1bV35[4:1],,8,7,6,
4/7,6,5/4,3,4x/2x,1/3,8/2,1bxpp8[8:3]/7bxqq8[8:3],
,,,,,,{4}C/B7/B2,
4/3h[4:1],7,5/4h[4:1],8,
6/5h[4:1],7,{8}1,B7/B8,{4}B1/B2,
4/3h[4:1],5,6/4h[4:1],{8}7,7/5p2[4:1],
,,,,{4}8-4[8:1],8/3,
6/2h[4:1],{8}5,4,{4}1/6h[4:1],{8}4,4/5-8[8:1],
,,,,{4}4-8[8:1]*-2[8:1],4,
{8}7h[4:1]/1h[4:1],,,5h[4:1]/4h[4:1],,,,6h[4:1]/3h[4:1],
,,6/3,6/3,3x/6x,5,4,3,
{4}2h[4:1],{8}5,6,{4}7h[4:1],{8}1,2,
{4}5h[8:1]/4h[8:1],3h[8:1]/2h[8:1],8h[8:1]/1h[8:1],C,
4<7[8:1],3,5>2[8:1],{8}6,7h[4:1],
,1h[8:1],2h[8:1],3h[8:1],4h[8:1],5h[8:1],{4}6b<1[8:1],
4,3>8[8:1],5,{8}6,8/7,
1,2/3,4,4-8[8:1]/5-1[8:1],,5/4,,6/3,
7,5/4,2,5/4,6/3,5<8[8:1]/4>1[8:1],,5/4,
,5h[8:1],4h[8:1],3h[8:1],2h[8:1],1h[8:1],{4}8b<3[2:1],
{2}8h[8:3],1-5[8:1],
{4}2>5[4:1],5<8[4:1],8>3[4:1],3>3b[2:1],
{8},,,,,8-4[8:1],,,,7<5[8:1],
5>3[8:1]*>3[8:1],3>1b[8:1],,8,6,4,
{2}2-4[8:1],7-4[8:1]*-1[8:1],
3-1[8:1]*-6[8:1],{8}8,1/2,3,5/4,
3/6,6/3,7/2,7/2,8/1,1/8,1/8,1h[4:1]/8h[4:1],
,,1-3[8:1],8-4[8:1],1-5[8:1],8,{4}1w5[8:1],
1b/B5/B6/B4/B1`Cf,{8}8-4[8:1],7,{4}8/3-1[8:1],{8}3/5<8[8:1],6,
{4}4>1[8:1],{8}4,6-8[8:1]*-3[8:1],,6,,2,
{4}1-5[8:1],{8}7,8>3[8:1],,5/8<8[4:1],,4/8,
,,{4}4h[4:1],{8}3,7/5,6,4/2,
{4}5/3-1[8:1],6/3,5/7-5[8:1],{8}7/8,3,
8/2-8[8:1],5-7[8:1],2,5,,8,7,6,
5,3/4,2,1/8,7/6,5/4,3/2,8h[4:1]/1h[4:1],
,,8/1,8/1,8/1,1/8,{4}8/1-5[8:1],
1/4b,{8}4-8[8:1],3,{4}4/7-5[8:1],{8}7/1>4[8:1],2,
{4}8<5[8:1],{8}8,2-4[8:1]*-7[8:1],,2,,6,
5,4-2[8:1],3,4-6[8:1],,4w8[4:1],,4,
,,{4}2b/6b,{8}6,2/4,3,5/7,
{2}6b-8b[8:1]/5b-8b[8:1],2x-4[8:1]/1x-5[8:1],
{8}6-8[8:1],3-1[8:1],6,3,,5,4,3,
5/4,6,5/4,2,5/4,7,4/5,7/1,
{4}2/8h[4:3],{32},,,,,,,,,,,,,,,,4bxw8[4:3],5x,6x,7x,8x,1x,2x,3x,
{8}4bx,,,,,,,5h[4:1]/4h[4:1],
,,5/4,5/4,5/4,5/4,{4}5/4-8[8:1],
4/1b,{8}1-5[8:1],2,{4}1b/6-8[8:1],{8}6/4>1[8:1],3,
{4}4b/5<8[8:1],{8}5,3-1[8:1]*-6[8:1],,3b,,7,
8,1<6[8:1],2,1>4[8:1],,1w5[4:1],,1b,
,,{4}7b/3b,{8}8/5,6,4/2,3,
{4}4-2[8:1]/5-1[8:1],4/5,8-4b[8:1]/7-5b[8:1],8/7,
{8}1-5[8:1],8-4[8:1],1,8,,1,2,3,
5/4,6,5/4,3,5/4,7,4/5,2,
{4}1h[2:1]/8h[4:3],,,1-5[8:1],
{2}1-7[8:1]*-4[8:1],6-8[8:1]*-3[8:1],
{8}2>4[8:1],4<6[8:1],6<8[8:1],8>8[16:5],,,,,{2}1h[2:1],
{24}6x,5,4,3,
E
