&title=un secret
&artist=モリモリあつし
&first=0
&des=なないし
&clock_count=4
&lv_5=13
&inote_5=(63.333333){4},,,,
{8}2^7[8:1],,6^3[8:1]/2,,1p8[4:1]/6,,,,
{8}7V52[8:1],,3V16[8:1]/7,,5p2[2:1]*qq8[2:1]/3,,,
{4},,{24},
{24}5,3,7^4[12:1],,8,1,8,,7/3qq8[6:1],,1,,2,4,3,,5,,6,,
{64}7q1[6:1],8,7,,{48},1,,{24},
{24}6,5,7,,4,,3,,{64}2-5[12:1],1,2,,{48},8,,
{24},4,,2^7[12:1]/6^3[12:1],,,8,4,6,2,,,,
{24}4,6,2^5[12:1],,1,8,1,,2/6pp1[6:1],,8,,7,5,6,,4,,3,,
{64}2pp2[6:1],1,2,,{48},7,,{24},
{24}3,4,2/5pp1[6:1],,7,,6,,5/1,,2,,3,,4w8[12:1],7,2,6,3,5,4,,,,
{24}3,4,2-5[12:1],,3/5,,1/4,,2/6p4[6:1],,8,,7,5,6,,4,,3,,
{64}2pp8[6:1],1,2,,{48},8,,{24},
{24}3,4,2,,5,,6,,{64}7-3[12:1],8,7,,{48},2,,
{24},4/8,,7^2[12:1]/3^6[12:1],,,1,5,3,7,,,,
{24}6,5,7-4[12:1],,4/6,,8/5,,7/3q5[6:1],,1,,2,4,3,,5,,6,,
{64}7qq7[6:1],8,7,,{48},2,,{24},
{24}6,5,7/4qq8[6:1],,2,,3,,4/8,,7,,6,,5,1,7,2,6,3,
{64}5q1[6:1],4,5h[192:26],,{48},,,{24},,,
{24}5p1[6:1]/3,,4h[12:1],,,,5/7,,6h[12:1],,,,
{24}8p3[6:1],,1,,2,,3<8[6:1],,2,,1,,2q5[12:7],,,,,,2,,,,7,,6,,,,,,8p3[6:1],,,,,,
{24}8q5[6:1]/3,,2h[12:1],,,,5/8,,6h[12:1],,,,
{24}5p1[6:1],,7,,8,,1p5[6:1],,8,,7,,6<3[12:7],,,,,,6,,,,{48}4,,,5,{24}4,,,,,,4p8[6:1],,,,,,
{24}4q8[6:1]/6,,5h[12:1],,,,4/2,,3h[12:1],,,,
{24}1q6[6:1],,8,,7,,6>1[6:1],,7,,8,,7p4[12:7],,,,,,7,,,,2,,3,,,,,,1h[6:1],,,,
{24}5,,2/6,,,3,3,4,2,,,6,6,5,7q3[6:1],,1,,2,,3q7[6:1],,2,,1,,2qq5[12:7],,,,,,2,,,,7,6,5,,,,,,,,,,,,
{24}7-4[12:1]/5,,1,,3/8,,2-5[12:1]/7,,8,,1/6,,2/7-3[12:1],,1,,
{24}4/8,,3/7,,1,,2/5,,{24}6,4,6,3,6,2,8,2,
{24}7,2,6,2,5pp4[6:1],,,,6,4,5,,,,,,
{24}2-5[12:1]/4,,8,,6/1,,7-4[12:1]/2,,1,,8/3,,7/2-6[12:1],,8,,
{24}5/1,,6/2,,8,,7/4,,3/5,,,6,6,4,7,,
{24},3,3,5,2^4[24:1],,2-5[24:1],,2-6[24:1],,,,,,,,
{24}7-4[12:1]/5,,1,,3/8,,2-5[12:1]/7,,8,6,1,8,2/7-3[12:1],,1,,
{24}4/8,,3/7,,1,,2/5,,{36}3,4,3,5,4,6,2,4,3,6,5,6,4,5,3,7,5,6,
{24}1q3[6:1],,,,2,8,1,,,,,,
{24}2-5[12:1]/4,,8,,6/1,,7-4[12:1]/2,,1,3,8,1,7/2-6[12:1],,8,,
{24}5/1,,6/2,,8,,7/4,,3/5,,,6,6,4,7,,
{24},3,3,5,2,8,2,7,2,6,4,6,3,6,2,6,1h[12:5],,,,,,7p4[12:5]*pp3[12:5],,,,5,3,7,,,,,,,,,,,,
{24}6,,4,,8,,2,,7,4,6,3,5,,4,,
{24}6,,1^4[6:1],,,,,,
{24}1^6[6:1],,8,,,,1q5[6:1],,2,,,,1p5[6:1],,7,,,,1,,3,,,,
{24}3,,5,,1,,7,,2,5,3,6,4,,5,,
{24}3,,8,,,,
{24}1,,7,,,2,2,5,3,,6,,4,,5>6[4:1],,,,,,,,,,,,
{24}2,,,7,7,4,6,,3,,5,,4<3[4:1],,,,,,,,,,,,
{24}7,,,3,3,5,2b/6b,,3b/7b,,4bp6[4:1]/8bp2[4:1],,,,,,,,,,,,,,
{2}1bw5[6:1],
{12}8,2,7,3,6,4,5,,,,,,,,,E
