&title=再生
&artist=ナナツカゼ; PIKASONIC; なこたんまる
&first=0
&des=柠檬红茶
&clock_count=4
&lv_5=13
&inote_5=(145)
{1}
,
{2}
7h[4:3]/2>4[12:1],5>3[12:1],
{2}
1h[4:3]/7<5[12:1],4<6[12:1],
{2}
7h[4:3]/2-4[12:1],5-2[12:1],
{2}
1h[4:3]/7-5[12:1],4-8[12:1],
{8}
1>3[12:1]/7,1/7,,,8<6[12:1]/2,8/2,,,
{8}
E2/B1,E3,E4,E5,E6/B5,E7,E8,E1,
{8}
1<7[12:1]/2>4[12:1],1/2,,,7<5[12:1]/8>2[12:1],7/8,,,
{4}
2xq7[16:3]p2[16:3]b*q7[16:3],,,
{8}
5,6,4bx/7bx,4x/7x,3,2,1x/4x,1x/4x,
{8}
5,6,7/1,6,2/8,3,B4/E4/6h[4:1],,
{8}
4,3,5x/2x,5x/2x,6,7,8x/5x,8x/5x,
{16}
4,7,4,,
{8}
3/6<2[4:1],5,4,4h[8:1],,
{16}
3,3,
{8}
8,7,2/6h[8:1],2,3/5,4,4/6h[8:1],5,6,7,2/8,
{8}
1,2/4,5,2q7[8:1]/6>3[8:1],,,,
{16}
5,2,7,4,6,1,8,3,6,1,7,4,5s1[4:1]<5[16:3]*s1[4:1]>5[16:3],2,8,3,
{2}
5x,
{8}
,
{16}
8,8,1-3[12:1]/7-3[12:1],,2/6,,
{4}
1x-5[12:1]/7x/Cf,1x-3[12:1]/5x-7[12:1],1x/5x,
{8}
4x/6x-1[8:1],1V74[4:1],3,4<7[8:1],,2b,
{16}
,,1,1,2-4[12:1]/8-4[12:1],,3/7,,
{4}
2x/8x-6[12:1],3xv5[12:1]/8xv5[12:1],3x/8x,
{8}
3x/6x,7,3<6[8:1]q3[8:1]b/6<1[8:1],2,3/6,,,
{16}
2,2,8bx-6[12:1],,8bx,,
{4}
1xv4[12:1]/8x-3[12:1],1x/8x<7[36:1]-5[18:1],
{4}
1x-5[12:1]/8xV24[12:1],1x/8x<1[8:3]V35[16:3]-7[32:3],
{8}
3,3h[4:1],,,,2>7[8:3]V13[16:5],2,6h[8:1],,7h[8:3],
{4}
,,
{8}
4/5,6,1/7,8,2/1,3h[4:1],,8,1<4[4:1]V68[32:5]/7,2/6,
{4}
1b/3b,2,
{8}
3x,3x,5xpp5[4:1]qq5[4:1],,2,2,1,1,1h[8:1],,
{8}
1>6[4:1]V42[8:1]/7,,
{4}
1b/7b,8-6[12:1],
{8}
3x/8-2[12:1],3x,4xp3[4:1]>4[8:3],,
{8}
8,7,6,6h[4:1],,,1x/8x<2[4:1]V46[8:1],1x/8x,
{4}
1b/8b,1,
{8}
2x,2x,3x>7[4:1]>3[4:1],,5,5,6,6,
{8}
5h[8:1],,1>7[4:1]p2[8:1]/7,,
{4}
1b/7b,8,
{8}
6x,6x,3xh[4:1],,8,7,6/4,5,
{16}
3x,,5x,5x,
{4}
B3/B2/E3f,
{4}
6x>3[4:1],,B3/B2,
{8}
,
{16}
3,5,
{4}
2h[4:1],,
{8}
B7/E8,4xh[8:3],,,
{4}
5xs1[4:1],,E2/B1,
{8}
3,7,6,5,4x>1[4:1],,B7/B6,8xh[8:3],
{4}
,2x>5[4:1],,B8/E8,
{16}
6,4,7h[8:1],,3,,6,6h[16:5],,,,,B3/E4,,7x-4[6:1],,
{4}
,2x-5[6:1],,B8/E8,
{8}
3h[4:1],1,1,,
{16}
5x/4x,,3,,3,,6,5,
{4}
A7f/E8/B7,
{4}
4/6,4/6,3/5,3/5,
{8}
7,4,5,2h[8:3],5,,5,,
{4}
1/7,1/7,2/8,
{16}
2/8,,3,1,3h[8:3],,
{8}
1,8,7,2/6,2/6,3/5-1[12:1]b,3/5,
{4}
5/Cf,4,4,
{16}
4,6,3,5,2,2,6,3,7,7,,2,
{8}
2h[4:1],1,8>5[8:3],7,8,7,6,6h[8:1],,,
{16}
8<3[8:3]b,1,,1,
{8}
8,1,2,2h[8:3],,,5<5[8:7]V71[16:7]V35[16:7],,
{1}
A5f/E5/E6/7hb[2:3],
{4}
,,,
{8}
7,6h[8:6],B2,B3,B4,B5,B2,B3,B4,B5,
{8}
2h[8:6]/B6,B5,B4,B3,B6,B5,B4,B3,
{8}
8h[8:6]/B2,A3,A4,A5,A2,A3,A4,A5,
{8}
2h[8:6]/E8,E7,E6,E5,E8,E7,E6,E5,
{8}
7h[8:3]/4,4,4,4,3h[8:3]/5,5,5,5,
{8}
8h[8:3]/2,2,2,2,1h[8:3]/6,6,6,6,
{8}
7x<4[12:1]/8x>3[12:1],7x/8x,,,
{8}
2x>5[12:1]/1x<6[12:1],2x/1x,,,
{8}
4/6,8,3/5,1,4-1[12:1]/5-8[12:1],,,,
{8}
7x<4[12:1]b/8x>3[12:1]b,7x/8x,,,
{8}
2x>5[12:1]b/1x<6[12:1]b,2x/1x,,,
{8}
7-1[12:1],7,2-6[12:1],2,4w8[12:1],,,,
{8}
7-2[12:1],7,3-6[12:1],3,8-5[12:1],8,4-1[12:1],4,
{8}
7-3[12:1],7,8-4[12:1],8,1-5[12:1],1,2,2h[8:1],
{16}
1,2,8,3,7,4,6,5,7,8,6,1,5,2,4,3s7[16:3]s3[16:3]b*s7[16:3],
{4}
,,,5xh[1:1],2,2,2,
{8}
2,3,4,5w1[12:1]b,,5,
{16}
,,3,3,1-5[12:1],,
{8}
2,
{4}
1>3[12:1]/8q4[12:1]/Cf,1-6[12:1]b/8,1/8,
{8}
5/6,7,4>7[4:1]/5,3,2h[4:1]/4,,,
{16}
6,6,1bx-3[12:1],,1bx,,
{4}
1-6[12:1]/8-5[12:1],1/8-4[12:1],1-5[12:1]b/8-6[12:1]b,1/8,
{8}
5xqq8[4:1],5x,,6,
{16}
,7x,7xh[4:1],,1,,
{4}
1qq4[8:3],3h[8:3],,
{8}
,
{8}
3/5,6,1/7,8,1/2,3h[4:1],,8,1p4[8:1]/7,6,
{4}
4q2[8:1],2p4[8:1],8b,
{8}
6/4x,5x,8/7,1>3[16:1]v5[8:1],,1/8,,
{16}
7,7,1q6[8:1],,1,,
{4}
6p8[8:1],8q5[8:1],7b,
{8}
2/8,6,1<5[16:3]/7>3[16:3],2,1/7,,,
{16}
6,6,1xp4[8:1],,2x,,
{4}
4q2[8:1],2p5[8:1],5q3[8:1],2b,
{8}
1>6[8:3],1,,7h[4:1],,,7,6<4[2:1],,2h[8:5],
{2}
,
{8}
,3,1/2,8,1/7,6h[4:1],,8,1-5[12:1]b,2,
{8}
1/Cf,3,4/6,
{16}
5,5,
{8}
3,6,1/7,2,
{16}
1/8,2,3,,
{8}
5/6,7,4/5,3,5/6,8,
{8}
7-4[12:1],8-3[12:1],7,8,1-6[12:1],2-5[12:1],1,2,
{8}
7>2[12:1],7,3p6[12:1],3,8,8,1b/8b,1b/8b,
{8}
2,6,5/3,
{16}
4,4,
{8}
6,3,8/2,7,
{16}
3/6,5,4,,
{8}
1/2,3,5/4,7,4/3,1,
{16}
1/5h[4:1],,2,3,4,,6,,8/4h[8:1],,7,7,3,,
{8}
3,4/6,7,3/5,2,2-6[12:1]b,7-3[12:1]b,2,7,
{1}
1bs5[1:1],,6<3[1:1],,
{8}
A7,A8,A1,A2,D8,D1,D2,D3,
{8}
A7,A8,A1,A2,D7,D8,D1,D2,
{8}
A7,A8,A1,A2,D8,D1,D2,D3,
{8}
A7,A8,A1,A2,D7,D8,D1,D2,
