&title=Sky Trails
&artist=La prière
&first=0.0333
&des_1=KarinaOvO
&des_2=KarinaOvO
&des_3=KarinaOvO
&des_4=KarinaOvO
&des_5=KarinaOvO
&des_6=KarinaOvO
&lv_6=14
&des_7=KarinaOvO
&des=KarinaOvO
&inote_6=(171){1},
{8}1h[8:3],,,8h[8:3],,,2b,3,
{8}6/4>8[2:1],7,,C,,,7,,
{8}7/5>1[2:1],8,,C,,,8,,
{8}1b/7<3[2:1],8,,C,,,2,,
{8}2/1<5[2:1],3,,C,,3,3,2,
{8}5b/1>6[2:1],6,,C,,,8,,
{8}6/7>4[2:1],5,,C,,,7h[4:1],,
{16}1,,2,,8,7,6,5,1,2,3,4,1,2,3,4,
{8}5b<8[8:1]/1b>4[8:1],,1>1[2:1],,
{16}E2,E3,E4,E5,E6,E7,E8,E1,
{8}3,2,2,4/3,2,,5/4,3,
{8},6/5,4,3,7/2-5[8:1],,8b/2b,,
{8}1,8,7,6/5,7,,5/4,6,
{8},3/4,5,6,7<4-8[4:1]/2h[4:1],,7b,1,
{8}2,3,8,4/7,6-1[8:1],,5/6,4,
{8},3/5,2-4-8[4:1],4,5,,6h[4:1],,
{8}8b,1-5[8:1],,1/6<3[4:1],,3>6[4:1],,4,
{8},E4,E3,E2,E1/C,E8,E7,E6,
{1}E5h[1:2]/B4h[1:2]/E4h[1:2]f,,,
{8},,,,
{16}E5,B4,B3,E3,E7,B6,B5,E5,
{8}2x,,2/4,,3,4,3,6,3,8,3,1,3h[4:1],4,5h[4:1],4,
{8}3,3h[4:1],4,5,6h[4:1],5,4,3,3/4,5,6,4,3/6,2,2/5,6,
{8}7/3,8,2h[4:1]/1,,3x-6-8[4:1],2,1,,
{8}2>4[8:1],,2,1,8>2[8:1],,7,,
{8}6<8[8:1],,5,,4>2[8:1],,5,,6<8[8:1],,1,1qq4[1:1]*qq5[1:1],1,,,,
{1},
{16}3/5,,4,5,4,,7,,5h[4:1],,6,,7h[4:1],,8,,
{8}1,2h[4:1],8,7,6h[4:1],5,4,3,
{16}3/4,,5,3,6,,4,,3/5,,6,,7/3,,6,,
{8}7/3,8,2h[4:1]/1,,1x-7-4[4:1],2,3/1,,
{8}1-3[8:1],,1,6,7-1[8:1],,3,,
{8}4-6[8:1],,3,,2-4[8:1],,2-8[8:1],,
{8}5>1[4:1],,5,6,7qq4[1:1],,7/8,,
{8}1,,2,,3,,
{16}E3,B2,B1,E1,
{8}6b-1[8:1],,6/2,,3-8[8:1],,3/4,5,
{8}6-8[8:1],,6/1,,2-4-8[4:1],,2/8,,
{8}6>2[4:1],,2<7[4:1],,7<4[4:1],,3,2,
{16}1,,1,,1,8,1,7,1,6,2,5,3,6,4,7,
{8}3b-8[8:1],,7/3,,6-1[8:1],,2,3,
{8}4>8[4:1],,4/5,5,6,7,7/8-5[8:1],,
{8}8/1-6[8:1],,1-4[8:1],,1/4>7[2:1],,6hb[8:3],,
{16},,,,6,,5h[8:1],,7,8,1,2,6,7,8,1,
{8}2/4,1/4,8/4,7/4,6/4,5h[4:1]/4,,4h[4:3],
{8},3b,2b,1b,8b,7b,6/4,5/3,
{8}4-2-6[4:1]/2,,1,8-4<5-1b[2:1],,8,,D7h[16:17]f/A7h[16:17]/A6h[16:17],,,,,
{16}B2,B3,B4,B5,B6,B7,B8,B1h[16:7],
{8},,,4hb[8:3],,,3h[4:1],,
{8}2-5-1[4:1],1,2/8,7-3-6[4:1],,7/2,2,
{8}1-5>2[4:1],,5/1,6,7,8-4[8:1]*<5-1[4:1],,,,
{8}2>4-8[4:1],1x,8/2,7s3-5b[2:1],,7/1,1,2hx[8:3],
{8},,6h[4:1],,
{16}5,7,5,8,4,1,4,1,
{8}3-8[8:1],,3/8,7,6-2[8:1],,1<7-3[4:1]/6,,
{8}1,,5-2[8:1],6,5/7-4[8:1],,7>3[8:1],,
{8}7,,6,8-5[8:1]/5-2[8:1],,8pp3[2:1]/5,,,
{8},6,7,,8hb[4:1],,2h[4:1],,
{8}1-4[8:1],3,1,2x-5[8:1],6,2,7,7-5-1[4:1],
{8},
,3h[4:1],,
{16}8,7,6,5,4,3,2,1,
{8}3-8[8:1],7,3,6-3[8:1],7,6,8,1>5[4:1],
{16},,,,6hb[4:1],,,,7,8,1,2,3/4,5,6,7,
{8}8/2-7[8:1],,2/6,5,4<7[8:1],,4-2-6[4:1]/3,,
{8}4,,8>3[8:1],7,6>3[8:1]/8,,6,,
{8}1,1h[8:1],8,8h[8:1],2,3h[8:1],
{16}7,6,5,4,
{16}1,2,3,4,5/8,7,6,5,
{24}1,2,3,4,5,6,7,8,1,Cf,,,
{16}2/5,,3,4,3,,5,,6,5,7,4,6h[8:1],,3,4,
{16}2,1,3,8,1,8,2,7,8,7,1,6,8>3[8:1],,5,,
{16}8b,,6,5,7,,4,,3,4,2,4,1h[8:1],,3,3,
{16}2,4,2,4,3,1,2,8,3,7,1,6,2,7,3,8,
{16}4x,3,2,8x,7,6,3x,2,1,7x,6,5,2x,1,8,6bx,
{16}6,,4,5,3h[8:1],,6,5,7h[8:1],,8,,2h[8:1],,1,,
{8}7h[16:3]/4h[16:3],,3/5,3/4,3/2,3/1,3/8,3h[4:1]/7-4[8:1],
{16},,7,,1,2,3,4,1,8,7,6,3,5,2,4,
{8}1b>4[8:1],,1-7[8:1]/4,5,6-2[8:1]/1,,6,,
{8}3/1-7-4[4:1],,1/3,2,1>4[8:1],,1<6[8:1],,
{8}1>4[8:1],,1-7[8:1]/4,5,6-2[8:1]/1,,6,,
{16}3h[4:1],,1,8,7,6,5,4,2,3,2,3,1,4,1,4,
{8}8b-3[8:1],,6b-1[8:1]/8,,4b-8[8:1]/6,,5b/4,5<5[2:1],
{16},,E6,E7,E8,E1,E2,E3,E4,E5,E6,E7,E8,E1,E2,E3,
{8}E4h[4:1],,1,1-4[8:1],,1-5[8:1]/5-7[8:1],,1/5,
{8},4,3-8[8:1]/8,,3/6-1b[8:1],,6>8[1:1],,
{8}6/8x,,,,,5,,,
{8}6h[4:1],,5,,3h[4:1],,4,5,
{8}2/6-4-1[2:1],,,,3,,4,,
{8}5-3-7[4:1],8,7-1-6-2-5[2:1],6,,,,,
{8}7<4[8:1],,3,2,,1-4[8:1]/2,8,7,
{8}6,6,5/3,3,6/4,7,2/6,1,
{8}8-4[8:1]/2,,8,,
{16}1,5,2,6,3,7,2,6,
{8}1h[4:1],,3hbx[4:1],,5hbx[4:1],,
{16}8,7,6,5,
{8}4/1b>4[8:1],,1-5[8:1]/8,,7/1,6,7/3,1,
{8}6-4[8:1]/2,3,6-8-2[4:1]/2,1,6,4,,3,
{8}4-8[8:1]/2>5[8:1],,2-6[8:1]/4,,2/1,8,7/4,3,
{8}5<8[8:1]/2,1,5/2-5-3[4:1],3,2/1,8,,6,
{8}5/2>5[8:1],1,2/6,7,
{16}8/E5,7,6,5,4/1x,3,2,1,
{16}8/4x,3,2,1,7,6,5,4,8bh[8:1],,2bh[8:1],,
{24}E4,E5,E6,E7,E8,E1,
{8}E2h[4:1]/A2h[4:1]/B2h[4:1],,6,3,4/6,7,8/3,2,
{16}1b/5b,,6,,4,7,3b,5,2,4,3,5,1b,7,2q4b[16:10],8q6[16:9],
{4},,,,
{8}5hx[4:1]/6h[4:1],,,7hx[4:1],,,
{24}8,1,2,3,4,5,
{8}7,7,6/5,6/4,3,6/2,7,1/8,2,
{16}7/3,,4,,
{24}7x,6x,5x,
{16}4/2b,,2,1,3,,8h[8:1],,
{16}5,,7,5,6,,
{24}3,4,3,
{16}5,2,6,3,7,4,6,3,
{16}5h[8:1],,3,4,2,,5,4,6,,4/6,,5,7,5,8,
{16}4hb[4:1],,2,1,8,7,6h[4:1],,
{24}5,,,E5,E4,E3,E2,E1,E8,E7,E6,E5,
{16}E4h[8:1],,6h[8:1],,3,4,2,4,
{24}1h[4:1],,,4,5,6,7,,,
{16}3,8,
{12}2x,4x,3x,6,4,5,2,7,4,8,3,6,
{16}5b/4b,,3,4,2,,3/1<4[16:5],,,,1,,
{16}2b,1b,8b,7b/A4f,
E
