&title=Re:Unknown X
&artist=まらしぃ
&first=0
&des=Re:Unknown Y
&freemsg=
&demo_seek=17
&demo_len=23
&des_5=
&lv_6=15
&inote_5=
&inote_6=(190)
{1},
{16}
,,,,,,,,,,,,,,{24}1,28,37,
{16}
4b-8[4:5]/6b-2[4:5],,,,,,,,,,,,,,,,
,,,,,,,,,,,,,,7,6,
5h[8:15],,,,,,,,,,,,,,,,
4h[8:7],,,,,,,,,,,,,,,3,
2h[8:9],,,1,,,8,,,7,,,6,,,5,
,,4h[8:7],,,3,,,2,,,1,,8,,,
7h[8:9],,,5,,,6,,,8,,,1,,,2,
,,1h[16:11],,,6,,,5,,,4,,3,8,2,
{16}
7b,,3,4,3,4,1b,5,4,5,4,5,8b,6,5,6,
1b,,6,5,6,5,8b,4,5,4,5,4,1b,3,4,3,
8b,5,8,3,8,1,2,3,6b,8,6,1,6,2,3,4,
5b/8b,7,6,5,8b/4b,1,2,3,4b/1b,2,3,4,{32}1b/5b,2,3,4,5,6,7,8,
{16}
1b-5[8:1]/5b,,,,7V51[4:1]/1,,,,73,,2>6[8:1],,,,27,,
8V64[8:1],,,,28,,1v6[8:1],,,,15,,8b,,,,
8b-4[8:1]/4b,,,,2V48[4:1]/8,,,,25,,7,,,,34,,
16,,38,,25,,47,,{24}1-5[8:1],5,1,5,1,5,{16}1b,,,,
7b-3[8:1]/4b,,,,2V48[4:1]/7,,,,26,,7<3[8:1],,,,72,,
1v7[8:1],,,,71,,6V42[4:1],,,,61,,1b,,,,
6b-8[8:1]/4b,,,,3V51[4:1]/6,,,,35,,8,,,,5,,
46,,35,,1<5[8:1]/7,,2,,3/1,,,{32}2,1,8,7,6,5,4,3,2,1,
{16}
8b-3[8:1]*-5[8:1],,,,8b,,,,16,,2-6[8:1]/5,,,,72,,
1V35[8:1],,,,71,,8v3[8:1],,,,84,,1,,,,
7b-4[8:1]/1b-6[8:1],,,,7b-3[8:1]/1b,,,,72,,1-5[8:1],,,,15,,
7,,18,,26,,48,,{24}7-3[8:1],3,7,3,7,3,{16}7b,,,,
2b-5[8:1]/8b-3[8:1],,,,2b-6[8:1]/8b,,,,27,,8-4[8:1],,,,84,,
3V51[8:1],,,,38,,8V64[8:1],,,,38,,2,,,,
8b<5[8:1]/3b>8[8:1],,,,8b-4[8:1]/3b,,,,58,,7>2[8:1],,,,47,,
5,,46,,35,,4>1[8:1]/7,,56,,{32}4b/8b,7,6,5,{16},,,,
2,,2,,3,,3,,4,,4,,5,,5,,
6,,6,,7,,7,,8,,8,,1,,8h[8:13],,
3,,3,,4,,4,,5,,5,,6,,6,,
5h[8:1],,,4h[8:1],,,3,,5-1[8:1],,,,8,,,,
34,,2,,4,,3,,56,,7,,5,,6,,
21,,3,,1,,2,,87,,1/6-3[8:1],,25,,,,
,,56,,47,,38,,27,,16,,25,,34,,
4b/2h[32:1],,,5b/7h[32:1],,,1b/8h[32:1],,35,,46,,4,2,5,3,
6b-2[8:1],,4,,4,,4,,1b-5[8:1]/4,,4,,4,,4,,
3b-7[8:1]/5,,5,,5,,5,,8b-4[8:1]/5,,5,,5,,5,,
7b-3[8:1]/1,,1,,1,,1,,4b-8[8:1]/1,,1,,1,,1,,
6b-3[8:1]/1,,1,,1,,1,,{32}1b/5b,8,7,6,5,4,3,2,{16}15,,,,
65,,7,,5,,6,,43,,2,,4,,3,,
78,,6,,8,,7,,12,,3/8-4[8:1],,47,,,,
,,56,,47,,38,,21,,83,,74,,65,,
5b-1[16:1]/4,,,2b-6[16:1],,,7b-3[16:1],,,,,,{32}1b,28,37,46,5,,,,
{16}
2b-5[8:1]/6b-1[8:1],,,,2b/6b,,,,45,,{32}18,2,3,4,{16},,35,,
{32}18,7,6,5,{16},,46,,{32}2v5[32:3]/8v5[32:3],37,46,5-1[8:1],{16},,28,,,,,,
7b-4[8:1]/3b-8[8:1],,,,7b/3b,,,,54,,{32}16,5,4,3,{16},,18,,
24,,35,,46,,57,,{24}2-4[8:1]*-6[8:1],1,2,1,2,1,{16}2,,,,
7b-2[8:1]/3b-6[8:1],,,,7b/3b,,,,54,,{32}15,8,7,6,{16},,45,,
{32}48,1,2,3,{16},,45,,{32}7v4[32:3]/1v4[32:3],62,53,4V28[8:1]*V68[8:1],{16},,71,,,,,,
2b-7[8:1]/6b-3[8:1],,,,2b/6b,,,,36,,{32}18,27,36,45,{16},,27,,
15,,15,,37,,3/7<4[8:1],,28,,{32}37,2,1,8,{16},,,,
34,,2,,1,,3,,56,,7,,8,,6,,
21,,3,,1,,2,,87,,1-5[8:1]/6,,25,,18,,
,,24,,35,,46,,57,,68,,17,,28,,
3b-6[16:1],,,7b-2[16:1],,,1b-5[16:1],,,,6,,7,6,7,6,
8-4[8:1]/5,,5,,85,,5,,5/6-2[8:1],,5,,56,,5,,
1-6[8:1]/5,,5,,15,,5,,8-3[8:1]/5,,5,,85,,5h[4:1],,
,,1,,34,,2,,56,,7,,{24}1,8,1,8,1,8,
{16}
1b-5[16:1],,,6b-1[16:1],,,2b-5[16:1],,,,,,{32}8b,17,26,35,{16}4,,
3b,4,2,5,1,6,8,7,4b,5,3,6,2,7,1,8,
5b,6,4,7,3,8,2,1,3b,5,4,6,2,8,1,7,
3b,4,1,6,4,5,2,7,5b,6,3,8,4,5,2,7,
1b,8,3,6,2,1,4,7,{32}1b,2,3,4,5,6,7,8,{16}15,,,,
65,,7,,5,,6,,43,,2,,4,,3,,
78,,6,,8,,7,,12,,3-1[8:1]/8-4[8:1],,27,,3b/8b,,
,,56,,47,,38,,12,,83,,74,,65,,
2b/6b,,,1b/5b,,,4b/8b,,{24}2,3,2,3,2,3,2b-6[8:1],1,8,7,6,5,
{16}
2b/4b,,,,,,,,3,,,,4,,,,
{64}
6,5p2[4:6],,,{16},,,,,,,,,,,,,,,
,,,,,,,,,,,,,,,,
{64}
3,4q7[4:6],,,{16},,,,,,,,,,,,,,,
{16}
,,,,,,,,,,,,,,3q6[8:13],,
4,,,,,,,,7,,,,,,,,
{16}
7,,,,8,,,,1,,,,2,,,,
{16}
5p4[4:3],,,,,,,,,,,,,,,,
1p8[8:5],,,,,,,,,,,,,,,,
3h[4:2]/5b,,,,5,,,,6h[4:2],,,,4,,,,
3h[4:2],,,,5,,,,6h[4:2],,,,4,,,,
2q5[4:2],,,,8,,,,8h[4:2],,,,,,,,
4q5[4:2],,,,5,,,,7,,,,7,,7,,
2<7[4:2]/6,,,,5,,,,4,,,,3,,,,
15,,,,26,,,,37,,,,8b,,,,
1V38[4:1]/5V74[4:1],,37,,15,,,,,,26,,,,3,,
1b/8b,,3,4,2,6,5,7,2,1,3,7,8,7,{24}2,3,4,
{16}
8b,2,8,2,7,1,7,1,{24}8,7,6,3,4,5,1,8,7,2,3,4,
{16}
6,1,6,1,8,3,8,3,{24}7,6,5,3,2,1,6,5,4,2,1,8,
{16}
5,2,5,2,4,1,4,1,{24}5,6,7,1,2,3,6,7,8,2,3,4,
{16}
7,5,7,5,8,6,8,6,{24}1,8,7,3,2,1,6,5,4,2,1,8,
5,6,7,3,2,1,4,3,2,5,4,3,8,7,6,2,3,4,1,2,3,8,1,2,
6,7,8,1,2,3,5,6,7,8,1,2,4,5,6,7,8,1,3,4,5,6,7,8,
4,5,6,3,2,1,5,6,7,2,1,8,6,7,8,3,2,1,7,8,1,4,3,2,
8,4,8,4,8,4,7,3,7,3,7,3,6,5,4,2,1,8,6,5,4,2,1,8,
6,5,4,1,2,3,8,7,6,2,3,4,7,6,7,6,7,5,4,3,2,8,7,6,
3,4,5,8,7,6,1,2,3,7,6,5,2,3,2,3,2,4,5,6,7,1,2,3,
7,8,1,4,3,2,5,6,7,3,2,1,6,4,6,4,6,8,1,2,3,5,6,7,
2,1,8,5,6,7,4,3,2,6,7,8,3,5,3,5,3,1,8,7,6,4,3,2,
7,6,5,4,3,2,41,3,2,1,8,7,61,8,7,6,5,4,38,7,6,5,4,3,
27,6,5,4,3,2,15,8,7,6,5,4,38,2,1,8,7,6,51,4,3,2,1,8,
{16}
3b/7b,,2b/6b,,1b-5[8:1]/5b,,,,71,,7-3[8:1],,,,17,,
1,8,1,8,3,8,1,8,1,8,1,6,1,8,1,8,
2b>5[8:1]/6b<1[8:1],,,,2bq1[8:1]/6b,,,,26,,4<7[8:1],,,,48,,
{32}8b,1,2,3,{16}48,,,,38,,,,34,,16,,,,
2b-6[8:1]/5b-1[8:1],,,,2b>4[8:1]/5b,,,,28,,{32}1b,8,7,6,{16},,,,
35,,17,,46,,2/8h[8:4],,3,,{32}4b,3,2,1,,7,6,5,4,37,26,15,
{16}
8bw4[8:1]/4b,,,,8b,,,,37,,{32}8/3>8[8:1],7,6,5,{16},,37,,
{32}6V84[4:1],5,4,3,{16},,61,,{32}4b,3,2,1,{16},,35,,{32}8b,17,26,35,{16}4,,
2-5[8:1]/6-2[8:1],,,,2/6<1[8:1],,,,16,,{32}2b,3,4,5,{16}2,,,,
24,,26,,46,,48,,6,5,6,5,{24}6,5,6,5,6,5,
7,6,5,1,2,3,8,7,6,2,3,4,7,6,7,6,8,5,8,5,1,4,1,4,
1,8,7,26,15,48,{32}7b,6,5,4,38,27,16,85,4,3,2,1,48,37,26,15,
{48}8b-4[8:1],7,6,5,4,3,2,1,8,7,6,5,{16}
4,,,,,,,,45,,,,,,,,
{48}
18,2b-6[24:30]/7,36,4b-8[24:29]/5,,,,,,,,,,,,,
{1},,
