&title=人生へたへたガール
&artist=藍月なくる
&first=0.58
&des_1=砂糖Cafe
&des_2=砂糖Cafe
&des_3=砂糖Cafe
&des_4=砂糖Cafe
&des_5=砂糖Café
&lv_5=13+
&des_6=砂糖Cafe
&des_7=砂糖Cafe
&des=砂糖Cafe
&inote_5=(222){4},,,,{2}2/6,
3/7,
{4}1/2,1/8z4>5[4:5],{2}7b/8b,
,,{1}4x/C,
{8}3,4,5,6,2,1,8,7,
{4}2-5[8:1],2,7-4[8:1],7,
{8}3,4,5,6,2,1,8,7,
{4}2-5[8:1],2,{8}7,7,4,4,
{4}6h[8:3],{8}2,2,5,5,,1h[8:3],
,4,{4}4,{2}6/2,
{4}7-5[8:1],8-4[8:1],{2}1-3[8:1],
{4}4/5,{8}5,4,{4}6/3,4,
{2}5h[4:1],4h[4:1],
6/3h[4:1],B5/B4,
7/5,2/4,
{4},4/5,4/5,{8}5,4,
3h[4:1],6,6h[4:1],2,2h[4:1],7,7h[4:1],1,
{4}1h[4:1],E8/B8,B5/E6,{8}4,5,
6h[4:1],3,3h[4:1],7,7h[4:1],2,2,8,
1,1,4,4,{2}3,
4/5,2/3,
{1}7>3[2:1]/6q3[2:1],
{2}1/8,{4}5-8[8:1]/4-1[8:1],4/5,
{8}2-5[8:1],1,2,1,7-4[8:1],8,7,8,
1,3<1[8:3],1,3,,,{4}A1f,
{8}3,4h[4:1],,3,6,5,6,5,
7,8>6[8:3],7,8,,,{4}A6f,
{8}8,2,8-4[8:1],2,{4}8,B2/B3/B7/B6/Cf,
{8}1,6,1-5[8:1],6,{4}1,E8/E7/A7/D7/B7f,
{8}4,6,4,6,2,8,2,8,
4-1b[8:1],6,{4}4-7b[8:1],,A5/A4/D6/D4/D5f,
{1}3,
4,
{2}6,7,
{1}8w4[4:3],
{4},,,,3/4h[2:1],
3,{8}3,3,4,4,
2x,3x-6[8:1],2x-7[8:1],3x,{2}2x,
{4}6/5h[2:1],6,{8}6,6,5,5,
7x,6x-3[8:1],7x-2[8:1],6x,{2}7x,
{8}3,3,,5,2-6[8:1],8,{4}2,
{8}7,7,,4,7-3[8:1],1,{4}7,
{8}2,2,7,7,1,1-5[8:1],8,8,
,3/6,,1/8,{4}2/7,B4/B5,
8-4[8:1]/7-3[8:1],7/8,8v5[8:1]/7-4[8:1],8/7,
{8}3,2,6,7,{4}1,{8}8x/7x-4[8:1],8x,
{4}7x/8x,{8}1x/7xv4[8:1],1x,{4}7x/1x,{8}2x/7x-4[8:1],2,
7/2x,3x,,5,{4}4,4/5,
1-5[8:1]/2-6[8:1],2b/1b,1v4[8:1]/2-5[8:1],1b/2b,
{8}6,7,3,2,{4}8,{8}1x/2x-5[8:1],1x,
{4}1x/2x,8x<5[4:1],5x>2[4:1],2x<4[2:1],
7b,4b,1b,1-6[8:1]/5-2[8:1],
1b/5b,8>3[8:1]/4<7[8:1],8b/4b,4-1[8:1]/8-5[8:1],
8b/4b,{8}2x-7b[8:1]/6x-3b[8:1],2x/6x,{2}2bx/6bx,
{8},,,,,,,,,,,,,,,,2xh[8:1],
4h[8:1],2h[8:1],4h[8:1],3h[8:1],5h[8:1],3h[8:1],5h[8:1],
4h[8:1],6h[8:1],4h[8:1],6h[8:1],5bh[8:1],7h[8:1],5h[8:1],7h[8:1],
4xh[8:1],8h[8:1],4h[8:1],8h[8:1],3h[8:1],1h[8:1],3h[8:1],1xh[8:1],
,,,2x,{2}2b,
{8}7xh[8:1],5h[8:1],7h[8:1],5h[8:1],6b,6b/4xh[8:1],6xh[8:1],4h[8:1],
5h[8:1],3h[8:1],5h[8:1],3h[8:1],4xh[8:1],2h[8:1],4h[8:1],2h[8:1],
5xh[8:1],1h[8:1],5h[8:1],1h[8:1],6h[8:1],8h[8:1],6h[8:1],8xh[8:1],
,,,7x,{2}7b,
{4}8/1-5b[8:1],1/7-4b[8:1],7/3-8b[8:1],3/5b,
{2}2/6,3/7,
{4}7/8,8/1-5[8:1],1/2,4qq4[8:3]*pp4[8:3],
,,2x,4x,
{8}6x,5,4,3,7,8,1,2,
{4}2-5[8:1],2,7-4[8:1],7,
{8}3,4,5,6,2,1,8,7h[4:3],
,,{4}3h[8:1],3h[8:1],{16}3x,7x,3x,7x,
{2}3b,4h[8:1],
5h[8:1],{4}6h[8:1],5h[8:1],
{2}6h[8:1],5h[8:1],
4h[8:1],{4}3h[8:1],4h[8:1],
{2}3b,4h[8:1]/2h[8:1],
3h[8:1]/5h[8:1],{4}4h[8:1]/6h[8:1],5h[8:1]/7h[8:1],
{2}4h[8:1]/8h[8:1],3h[8:1]/7h[8:1],
6h[8:1]/2h[8:1],{4}1/5,{8}2,5,
{4}2h[8:3],{8}7,7,3,3,,8h[8:3],
,4,{4}4,{2}3/7,
{4}2-4[8:1],1-5[8:1],{2}8-6[8:1],
{4}5/3,{8}4,5,{4}3/6,4,
{2}2/4,7/5,
{4},5/4,5/4,{8}4,5,
6h[4:1],3,3h[4:1],7,7h[4:1],2,2h[4:1],8,
{4}8h[4:1],1b,3b,{8}5,4,
3h[4:1],6,6h[4:1],2,2h[4:1],7,7,1,
8,8,2,2,{4}7,4,
{2}2/5,4/7,
{1}3qq5[8:5]/6pp4[8:5],
6/2<1<8<7<6>5>4>3>2[8:5],
8p5[2:1]*q3[2:1],
{2}Cf/B6/B5/B4/B3,5xh[4:1]/4xh[4:1],
{4}4x/5-1[8:1],5/4x,3x/5-8[8:1],5/3x,
{8}4x/5-1[8:1],4x,{4}5/4x,{8}3x/5-8[8:1],3x,{4}5/3x,
7-4[8:1],7,2-5[8:1],2,
1x-3[8:1]/8x-4[8:1],1x-5[8:1]/8x-6[8:1],1x/8x,4b/3b,
4x/5x-1[8:1],5x/4x,3x/5x-8[8:1],5x/3x,
{8}4x/5-1[8:1],4x,{4}5/4x,{8}3x/5-8[8:1],3x,{4}5/3x,
{2}7v4[8:1]*-5[8:1],2v5[8:1]*-4[8:1],
{8}7,7,3,3,{2}8x-4b[8:1]/2xs6[1:1],
{4},,,,3xh[2:1],
4,5h[2:1],4,
2h[2:1],4,{2}6,
{4}6h[2:1],5,4h[2:1],5,
7h[2:1],5,{2}3,
{1}4pp1[2:1]/6qq1[2:1],
5qq8[2:1]/3pp8[2:1],
5/4>8>4[4:3]*>4[4:3],
{4},,,C/B6/A6/B3/A3,
7x-4[8:1]/2x-5[8:1],2/7,8x-4[8:1]/1x-5[8:1],8/1,
{8}2x,3x,7x,6x,{4}4x,{8}5x/3x-8[8:1],6x,
{4}7x,{8}5x/3x-8[8:1],6x,{4}7x,{8}6x>3[8:1],2x,
1x,8x-4[8:1],,5x,{4}6x,3/7,
8/1>5[4:1],5<1[4:1],1>5[4:1],5,
{8}6x,7x,8x,1x,{4}4x,8p3[4:1],
3>8[4:1],8<5[4:1],5>2[4:1],2<4[2:1],
7b,4b,1b,1-6[8:1]/5-2[8:1],
1b/5b,8>3[8:1]/4<7[8:1],8b/4b,4-1[8:1]/8-5[8:1],
8b/4b,{8}2x-7b[8:1]/6x-3b[8:1],2x/6x,{2}2bx/6bx,
{1}5/4>5[4:7],
,4>5[4:7],
{2},,4-1[8:1],
5-8[8:1],
1-4[8:1],8-5[8:1],
2w6[8:1],8w4[8:1],
{4}E4,E5,E6,Cf/E7/B6/B7/B2/B3/E3,
2V46[4:1],4,7-3[8:1],1b/7b,
2<6[4:1],6,5-8[8:1],5b/3b,
4x-2[8:1]*-1[8:1],4b,4x-6[8:1]*-7[8:1],4b,
4xV61[4:1],7,8-4[8:1],8b/1b,
2V86[4:1],6,5-8[8:1],{8}4,{16}3x,2x,
{4}1xpp4[2:1],7,6-2[8:1],6b,
3<6[8:1],8,7>2[8:1],4,
3/5,2/6,1-4[8:1]/7-4[8:1],1b/7b,
2V41-5[8:3],5,8-6[8:1]*-3[8:1],8b,
7-3<6-1[2:1],1,2-5b[8:1],2b,
8<5[4:1],5-1[4:1],1>4[4:1],4-8-6-2[8:5],
2,1,8-4b[8:1],8b,
7qq4[4:3],{8},,,,8b,{16}1x,2x,
{4}3qq8[4:3],,,5b,
6<1<5[4:3],{8},,,,1b,{16}2x,3x,
{2}4>1[4:1],{16}8x,7x,6x,5x,{4}4bx,
7/2-5[8:1],2/8,1/2-5[8:1],2/1,
2-5[8:1]/8-4[8:1],2/8,2-5[8:1]/1v4[8:1],2/1,
{1}2q5[2:1]/8p5[2:1],
{4}6/2-5b[8:1],2/7-4b[8:1],7/3-8b[8:1],3/6w2b[8:1],
{1}B2/B6/6<6b[2:3]*>6[2:3]`Cf,
,5/4-2-8-6<4[2:3],
,5/6V84[2:1],
4/3V15[2:1],
{2}4/5,2/3,
{4}7/6,1/8,{8}2,3,4,6/5,
,3/7,{4}2/8,{8}1/6,,,4/3,
,2/6,{4}1/7,8/3,{8}4,3/5,
,5,4/6,3,,5,{4}4>6[4:3],
{1}5h[4:3],
B4/B5,
,7v5b[4:5]/3v1b[4:5],
{4},,,C/B6/A6/B3/A3,
7x-4[8:1]/2x-5[8:1],2/7,8x-4[8:1]/1x-5[8:1],8/1,
{8}2x,3x,7x,6x,{4}4x,{8}5x/3x-8[8:1],6x,
{4}7x,{8}5x/3x-8[8:1],6x,{4}7x,{8}6x>4[8:1],7x,
8x,1x<7[8:1],2x,3x,{2}4x>2[8:1],
{4}8/1V35[4:1],{8}5x,6x,7x,8x,{4}1x<5[4:1],
{8}5x,4x,3x,2x,{4}1b,1q6[4:1],
6<1[4:1],1>4[4:1],4<7[4:1],7-1-3-5[2:1],
2b,5b,8b,{8}8xp3[4:1],4x,
{4}3x>8[4:1],8<5[4:1],5>2[4:1],2-8-6-4[2:1],
7b,4b,1b,{8}2x,3x,
{1}4xpp2[4:3],
{2}5<8[8:3],1,
{1}2z6[2:1]/6s2[2:1],
{2}4/5,5xh[4:1]/4xh[4:1],
{4}4x/5b-1[8:1],5/4x,2x/5b-8[8:1],5/2x,
{8}4x/5b-1[8:1],4x,{4}5/4x,{8}2x/5b-8[8:1],2x,{4}5/2x,
7<4[8:1],7,2>5[8:1],2,
1x-3[8:1]/8x-4[8:1],1x-5[8:1]/8x-6[8:1],1x/8x,4b/3b,
4x/5b-1[8:1],5x/4x,2x/5b-8[8:1],5x/2x,
{8}4x/5b-1[8:1],4x,{4}5/4x,{8}2x/5b-8[8:1],2x,{4}5/2x,
{2}7v4[8:1]*-5[8:1],2v5[8:1]*-4[8:1],
{8}7,7,3,3,{2}8xz4>7b[1:1]/2xs6<3[1:1],
{4},,,,4/6,
{8}3x/5x,4x/6x,{4}5x/7x,{8}4x/6x,5x/3x,
{4}4x/2x-6[8:1],2x,{2}7b/B2/E3/B3/B4/E4/A3f,
E
