&title=ラクトガール ~ 少女密室
&artist=上海アリス幻楽団
&first=0.05
&des=NaOH
&clock_count=4
&lv_4=11
&lv_5=13+
&inote_4=(152){4},,,,,,,,
(147)3h[8:3],,4h[8:3],,5h[8:3],,6h[8:4],,
Ch[4:4],,,,7p6[4:2],,,,
2h[8:3],,1h[8:3],,8h[8:3],,7h[4:2],,
Ch[4:4],,,,1v4^3[4:2]b*v6^7[4:2],,,,
(151)
1xh[4:2]/7x,5,8h[4:2],2,3h[4:2],4,5<8[4:1],,
{8}3,3,34,,6,6,65,,3,6,4,5,3-6[8:1]/6-3[8:1],,,,
2h[4:2]/8,,1,,7h[4:2],,8,,1,1,28,,8,8,17,,1>4[4:1],,E5,,6^1[4:1],,C,,
2h[4:2],,,,A4f,,,,
(149)
6xh[4:4],,,E1,E2,,,,3h[4:4],,,E5,E6,,,,
7h[4:4],,,E3,E4,,,,1h[4:3],,,E8,E7,,,,
(152)
5h[4:2],,2,3,4h[4:2],,5,6,7h[4:2],,1,2,3-5[8:1],,6,,
8h[4:2],,3,2,1h[4:2],,8,7,6h[4:2],,4,3,2-5[8:1],,6b,,
6x-2[8:1]/4x-2[8:1],,,,{16}7,,,7h[16:3],,,,,
1,,1,,28,,,,3,,,3h[16:3],,,,,
{8}3x-8[8:1]/4x-8[8:1],,,,{16}6,,,6h[16:3],,,,,
5,,5,,46,,,,34,,,3h[16:3]/4h[16:3],,,,,
{8}6x-1[8:1]/5x-1[8:1],,,,{16}24,,,2h[16:3]/4h[16:3],,,,,
3,,3,,24,,,,56,,,5h[16:3]/6h[16:3],,,,,
{8}1x-3[8:1]/8x-4[8:1],,,,{16}57,,,5h[16:3]/7h[16:3],,,,,
6,,6,,57,,,,6-1[8:1],,,,2b,,,,
{8}2x-4[8:1]/4x-6[8:1],,,,{16}2h[16:3],,,4h[16:3],,,3,,
5,,5,,46,,,,7h[16:3],,,5h[16:3],,,6,,
{8}7x-5[8:1]/5x-3[8:1],,,,{16}7h[16:3],,,1h[16:3],,,8,,
{8}2,4,35,35,5-8[8:1]/3,,2b,,
{8}1x-4[8:1]/4x-7[8:1],,,,{16}2h[16:3],,,3h[16:3],,,4,,
6,,6,,56,,56,,7h[16:3],,,6h[16:3],,,5,,
{8}3x-8[8:1]/4x-7[8:1],,,,{16}6h[16:3],,,2h[16:3],,,4,,
3,,3,,34,,34,,2-5[8:1],,,,8b,,,,
{4}4bxv1-3^4[4:14]*v7-5^4[4:14],,,,,,,,,,,,,,,,
2h[8:3],,3h[8:3],,4h[8:3],,5h[4:2],,6xp5p4[4:5]b,,,,C,,A1/D2,,
{8}3,3,4,,6,6,5,,2,2,1,,7,7,8,,
1h[4:1],,3h[4:1],,5h[4:1],,7h[4:1],,5,4,3,2,1-5[8:1],,B7/B6,,
2,3,34,,7,6,56,,3,2,12,,6,7,78,,
8h[4:1],,6h[4:1],,4h[4:1],,2h[4:1],,1V75[4:2],,,,2,3,4b,,
3,3,4,25,6,6,5,47,3,2x/4x,6,5x/7x,8-4[8:1],,1b,,
6,6,5,5,4,4,3,3,7,2,1x/8x,7,2,8,2bx/7bx,,
2,5,34,34,7,5,56,56,7,78,1,2h[4:1]/8,,7,7h[4:1],,
5-3[8:1],,6x,,5-2[8:1],,7x,,1-5[8:1],,8x,,4,3,2b/5b,,
2,2,1,38,7,7,8,16,2,3x/1x,7,8x/6x,5-1[8:1],,4b,,
7,7,8,8,1,1,2,2,6,3,4x/5x,6,3,5,3bx/6bx,,
3,8,21,21,6,8,87,87,6,65,4,3h[4:1]/5,,6,6h[4:1],,
8-2[8:1],,7x,,8-3[8:1],,6x,,4-8[8:1],,5x,,36,27,1b/8b,,
(149)
6xh[4:4],,,E1,E2,,,,3h[4:4],,,E5,E6,,,,
7h[4:4],,,E3,E4,,,,1h[4:3],,,E8,E7,,,,
(152)
5h[4:2],,2,3,4h[4:2],,5,6,7h[4:2],,1,2,3-5[8:1],,6,,
8h[4:2],,3,2,1h[4:2],,8,7,6h[4:2],,4,3,2-5[8:1],,6b,,Cf,,
&inote_5=(152),,,,,,,,
(147){8}2h[8:3]/6,,,4h[8:4],3,,,1h[8:4],5,,,6qq3[8:9],2,,,,
1h[8:9],,,,,,,,,4,5,6,4-1[4:1],5,6,,
7h[8:3],,,3,4h[8:3],,,6,5V71[4:2],,,2,,3,2q4[4:3],,
6h[4:3],,,,,,,,5-8[8:1],,1,{16}2,3,4-1[8:1]*-7[8:1]b,,,,,,,,
(151){8}
2x-5[8:1],2,7,8p4[8:1],8,3,1V35[4:1],,
5V71[4:1],,1V35[4:1],,5v2[8:1]*v8[8:1],,,,
7x-4[8:1],7,2,3-8[8:1],3,4,5<1[4:1],,
1,2,3,4,5,46,37,,
6x-4[8:1],6,3,2,1x>4[8:1],1,8,7,6x<1[8:1],6,5,4,38,27,1>5[4:1]/6,,
5<1[4:1],,1^2-4^5[4:1],,5^6-8^1[4:1]b,,1>7[8:3],,5h[4:1],,,,
{16}1x,2,3,4,5x,6,7,8,
(149){8}1bx^3-8[4:3]/5bx,,,A7,E7,,,,6^4-7[4:3],,,A1,E2,,,,
3-8^2[4:3],,,A5,E6,,,,7v5^4[8:3],,,2,3-1[8:1],,34,5,
(152)6-4[8:1],,36,2,1-5[8:1],,18,7,6-8[8:1],,26,3,4-2[8:1]*-8[8:1],,4,,
3-5[8:1],,63,7,8-4[8:1],,81,2,3-1[8:1],,7,6,5-2[8:1]*-8[8:1],,5b,,
{8}7-5[8:1],3,7,,{16}4-8-2[4:1],,,6,6,,7,,
6-4[8:1],,4-7[8:1],,6,,3,,2-8[8:1],,,8-3[8:1],8,,7,,
{16}6-3-5[4:1],,6,,3,,2,,2V83[4:1],,,7,7,,6,,
5V74[4:1],,4,,5,,3,,1-4[8:1],1,,8,8h[8:1],,,,
{8}2-4[8:1],6,2,,{16}5-1-7[4:1],,,3,3,,2,,
3-5[8:1],,5-2[8:1],,3,,6,,7-1[8:1],,,1-6[8:1],1,,2,,
{16}3-6-4[4:1],,3,,6,,7,,7V16[4:1],,,2,2,,3,,
4V25[4:1],,5,,4,,6,,8-5[8:1],8,,1,1h[8:1],,,,
{8}7b-3[8:1],2,4b-1[8:1],,{16}6-3[8:1],,,3-5[8:1],3,,2,,
1-5[8:1],,2,,6-1[8:1],,7,,2-6[8:1],,,4,4h[8:1],,,,
5-1[8:1],,6,,2-5[8:1],,3,,5-1[8:1],,,6,6h[8:1],,,,
7-4[8:1],,4-8[8:1],,7,,3,,1-4[8:1],1,,7,7h[8:1],,,,
{8}2b-6[8:1],7,5b-8[8:1],,{16}3-6[8:1],,,6-4[8:1],6,,7,,
8-4[8:1],,7,,3-8[8:1],,2,,7-3[8:1],,,5,5h[8:1],,,,
4-8[8:1],,3,,7-4[8:1],,6,,4-8[8:1],,,3,3h[8:1],,,,
2-5[8:1],,6,,2,,7,,4,6,4,6,3,7,2,8,
{8}
1b>6q3[4:5],,,6x,6x,,,7x,7x,,,8x,8x,,,,7v6-4[4:3]/2,,,,,,,,,
E2,E3,E4,E5,E6/B6,E7/B7,,
8<3v6b[4:5],,,3x,3x,,,2x,2x,,,B1/E2,,2,2,,
4p4[4:2]*pp4[4:2],,,,,,,,8/2-4[8:1],,,{16}7,6,5-1[8:1]*-7[8:1]b,,,,5,,,,
(152.5)
{8}3,3h[4:1],E8,E7,2,2h[4:1],E7,E6,1,2h[4:1],E6,E5,2,1h[4:1],E5,E6,
1>5[4:1],,5q1[4:1],,1>5[4:1],,,,6,7,8,1,28,37,46,,
{8}5,5h[4:1],E3,E4,6,6h[4:1],E2,E3,7,7,1-5[8:1],5-1[8:1],,8,8<4[4:1],,
4V68[4:1],,8q1[8:3],,2h[4:1],,,,
{16}2>5[8:1],,,,6h[4:1],,,,4,5,3,6,2,7,1,8,
(152){8}1x-5[8:1],6-8[8:1]/2,1,6,3-5[8:1],7-3[8:1]/2,3,7,
1>4[8:1],8<5[8:1]/2,1-5[8:1],8,1v3[8:1]*v7[8:1],,1b,,
2-4[8:1],1,7-3[8:1],8,2-5[8:1],1<4[16:5]b,2,1,,
3,2,1,2-5[8:1]/6-1[8:1],37,2b/6b,,
5x-1[8:1]/3x,2-5[8:1]/6,5,2,8-6[8:1],4-8[8:1]/7,8,4,
7-5[8:1],5-1[8:1],7,2V48[4:1],,6,7-5[8:1],,
1-7[8:1]/7,,3-1[8:1]/1,,5-3[8:1]*-7[8:1],,,,
2v5[8:1]/8v5[8:1],,2b/8b,,{16}6,4,6,4,7,3,8,2,
{8}8x-4[8:1],3-1[8:1]/7,8,3,6-4[8:1],2-6[8:1]/7,6,2,
8<5[8:1],1>4[8:1]/7,8-4[8:1],1,8v5[8:1]*v3[8:1],,8b,,
7-5[8:1],8,2-6[8:1],1,7-4[8:1],8>5[16:5]b,7,8,,
6,7,8,7v4[8:1]/3v8[8:1],62,7b/3b,,
4x-8[8:1]/6x,7-4[8:1]/3,4,7,1-3[8:1],5-1[8:1]/2,1,5,
2-4[8:1],4-8[8:1],2,7V51[4:1],,3,2-4[8:1],,
6-8[8:1]/2,,6-4[8:1]/2-8[8:1],,2-4[8:1]b/6-8[8:1]b,,,,
2-7[8:1]/6-3[8:1],,2b/6b,,{16}4,5,3,6,2,7,1,8,
(149){8}
2bV46[4:2]/7b,,,8,8,,,,7V53[4:2]/2,,,1,1,,,,
1V35[4:2]/6,,,7,7,,,,8V64[4:2]/3,,,2,2,,3-8[8:1],,
(152){8}
34,,4,5,6-4[8:1],,36,2,1-3[8:1],,17,6,5-7[8:1]*-1[8:1],,5,,
4-2[8:1],,46,7,8-4[8:1],,18,2,
3-1[8:1],,34,5,6-2[8:1],,2w6b[8:1]/6b,,Cf,,
