&title=p.h.
&artist=SEVENTHLINKS
&first=-0.1
&des=Aster
&des_5=Aster
&lv_5=13
&inote_5=(132){4},{1},{4},,,4,
4,4,4/5-7[8:1],
4b,{8}2/1,{16}3,4,{4}3h[8:1],{8}5/4,{16}6,5,
{4}6h[8:1],{8}4/5,{16}3,3,{8}4h[4:1],2,1,1,
{4}7-5[8:1],8,1-7[8:1],2,
{8}3/6,{16}4,5,{8}3,{16}5,4,{8}6,{16}3,4,{8}1-5[8:1],8,
{4}7b,{8}6/5,{16}3,4,{4}2h[8:1],{8}4/5,{16}6,5,
{4}7h[8:1],{8}5/4,{16}2,4,{8}3h[8:1],5,6,6,
{16}7/4>2[8:1],{8},{16}6,{8}4x,5,{16}1/5<7[8:1],{8},{16}3,{8}5x,4,
{4}8/4h[8:1],5h[8:1]/3h[8:1],2h[6:1]/6h[6:1],{32}8,{16},{32}8,{16},8,
{4}1b/7b,6/4v2-8[16:5],5h[8:1],7,
{16}6,5,{8}6,{16}3,4,{8}3,6-1[8:1],{16}5,5,{4}6,
{8}8/3h[8:1],4h[8:1],5h[8:1],6h[8:1],1-5[8:1],{16}8,8,{8}1,7,
{16}6,5,{8}6,{16}7,8,{8}7,1-3[32:3],{16}8,8,{8}1-5[8:1],7,
1b,6,4/5,{16}3,3,{8}4,{16}5,5,{8}4<7[8:1],3,
{4}4/1>4[8:1],1/8,{16}6,5,6,5,{8}6-1[8:1],4,
2-5[8:1],3,7-4[8:1],8,3>8[8:1],2,5-1[8:1],6,
7-3[8:1],8,2,1,8p4[8:1],{16}1,1,{4}8,
6/1-3-5[4:1],7,8-4-8[4:1],{8}B1,B3,
{4}1-5-1[4:1],{8}B8,B6,{4}8-4-8[4:1],{8}B1,B3,
{4}1-7-5[4:1],2,3-7-3[4:1],{8}5,5,
{4}6-2-6[4:1],{8}4,4,3,2x,1x/7x-5-2-4-6[2:1],2x/8x,
{4}1/7,8,1-4-1[4:1],{8}E8,B6,
{4}5-8-5[4:1],{8}E4,B2,{4}1-4-1[4:1],{8}E8,B6,
5,5,6/1,2,3/4,{16}5,4,{8}6/3,7,
1/5,2,3/7,6,5/A1,6/A2,A3/7-3b[8:1],8/A4,
7b/2b-5[8:1],1,2/6v1[8:1],7,{16}4/6-3[8:1],{8},{16}5,{8}6,2,
1/8,2,4/3<6[8:1],{16}2x,1x,3x-7[8:1],{8},{16}8x,{8}3,5xh[4:1],
8,1,2/6,3/7,{16}4/8-5[8:1],{8},{16}3,{8}8,2,
{16}6/1-4[8:1],{8},{16}7,{8}1-5[8:1],8,{4}1w5[8:1],1,
{8}8b/2b-4-8[16:3],7,2/6-3[8:1],5,{16}6-1[8:1],{8},{16}2,{8}6,5,
{16}3>1[12:1],4,3,4,{8}3,{16}8x,7x,6x/5-2[8:1],{8},{16}6x,{8}5,7x,
8-6[32:3],1-5[8:1],8-4[8:1],1,8,{16}1,2,{8}5v8[8:1]/3v8b[8:1],6,
{2}5b/3b,{16}4/5,{8},{16}5,{32}3,{16},{32}3,{16},3,
{4}4b/2b,8/1-3-8-4[8:3],{8}6,6,{4}6<1[32:5],
{8}6/3-8[8:1],4,3/7,6,5-8[8:1],4,{4}5-3v1[4:1],
{8}8x,8,7-5v8[4:1],6,7x,1,2,3,
B7/B4/B8/B3,{16}6,5,6<1[8:1],5,{8}6,{16}4,4,,3,{8}3/4,4/3,
5b/2b>5[8:1],1,2/7-4[8:1],8,7/1,{16}2,2,{8}B7/E7,B1/B2,
5x/4x,{16}3,5,4,6,5,7,4,6,3,5,{8}2-5[8:1],1,
2/8-4[8:1],7,8/1-5[8:1],2,1-3[32:3],{16}6,6,{8}1,4,
{16}7,5,6,4,{8}5,3/4,{16}2,4,3,5,{4}4h[4:1],
6<2-8-6[2:1],5,3,{8}5x,5xh[8:3],
B8,C,4x,4xh[8:3],B1,C,5x,5x,
{4}6/4>8V24[2:1],8,4,{8}8x,8xh[8:3],
B6/B5,C,1x,1xh[4:1],B3/B4,5x,6x/2x,7x/3x,
{4}8/4>2-6[4:1],6<8-4[4:1],4>1[16:3],{8}5x,6x,
7h[2:1],B5/B6,4x,3x,2h[8:3],B3/B4,5x,6x,
{16}7,1xh[8:1],,8,{8}2xh[8:1],{16}7,8,7-5[32:3],8,{8}7,4x,4x,
{16}2,1,4,5,8,7,{8}5,2x/A6,7x/A3,A5/1x-5b[8:1],2x/E7,
1bx/8bx-4[8:1],6,8/1-5[8:1],3,{16}7/1V37[16:3],{8},{16}6,{8}1,5-8[8:1],
5-2[8:1],5,5,{16}7x,6x,4/5xq1[8:1],{8},{16}4x,{8}5,3x,
1x/2x,1/8,7/8-4[8:1],2,{16}1/8-6[32:3],{8},{16}3,{8}8,5,
{16}2,4,3,6,4,5,2,4,3,5,4,5,{4}1q5b[8:1],
{8}1b/7b-4[8:1],8,7/3>8[8:1],2,{16}6/3-6[8:1],{8},{16}5,{8}3,7,
{16}8p4[8:1],1,7,2,{8}8,{16}3x,2x,1x/4-7[8:1],{8},{16}2x,{8}4,3x,
2-4[32:3],1-5[8:1],2-6[8:1],1,2,{16}1,8,{4}2-8[32:3]/7-3[8:1],
{2}7b/2b,{12}D7,D6,D5,1x,2x,3x,
{4}4x/8<4[4:1],{8}3,2,{16}1>5[4:1],{8},{16}5,{8},6,
{4}7qq3[8:3],{8}3,2,{12}1,1,1,2/8,{6},{12}6h[12:1],
4h[12:1],8h[12:1],3h[12:1],5h[12:1],1h[12:1],6h[12:1],4h[12:1],8h[12:1],3h[12:1],5h[12:1],1h[12:1],
{8}7h[4:1],{16}2x,3x,{8}4xh[8:1],{16}8x,7x,{12}6h[6:1],5,4,3h[6:1],5,6,
{8}7b/2b,3,4/8p4[32:5],{16}3,2,{8}1/8,2,6/1q5[32:5],{16}6,7,
{8}8/1,7,8/3,{16}1/8,2/7,{8}3/6,{16}4,5,{4}6/3-8[8:1],
{8}3/7-4[8:1],6,7/2-5[8:1],1-6[8:1],2,1,4<5-7[8:1],3,
{4}2/4>3-1[8:1],4/8-6[32:3],8/1-5[8:1],1/2-4b[32:3],
{8}2/7-5b[32:3],8,7/2,1,{16}1,8,2,7,3,6,4,5,
{4}1w5[8:1],{64}1b,B1,Cf,B6/B5/B4,{16},,,{8}7x/2x-5[8:1],{16}3,4,{8}6x/2,8-4[8:1],
1x-3[16:1],8,1x,{16}8,7,{8}4/6x-1[8:1],{16}5,4,{8}6x,4,
3/8x-4[8:1],6/1-5[8:1],8x/2,1,7xp3[8:1],{16}8,1,{8}7x,1,
2xq6[8:1],{16}1,8,{8}2x,7,{16}8x,1,8,1,{4}2x/7-4b[8:1],
{8}7b/3b-8[8:1],2,3/6xv1[8:1],7,3/6x-3[8:1],{16}4,4,{8}6x,2,
{16}1x-5[8:1],8,2,8,{8}1x,{16}6,7,{8}1/8x-4[8:1],{16}3,3,{8}8x,1-7[32:3],
2x-6[8:1],1-5[8:1],2x-4[32:3],1,2x,{16}6,7,{4}8v5[8:1]/4xv1[8:1],
8-6[32:3]/4-2[32:3],4/8-4[8:1],{8}2x/8x-3[8:1],1,6x/8x-5b[8:1],7,
8b/2b,{16}3,3,4,4,2,2,8-4[8:1],1,7,2,{8}8,3,
2/1,{16}7,8,6,1,7,2,5-1[8:1],4,6,3,{8}5,4,
3-8[8:1],2,3/7-4[8:1],6,7/2-6[8:1],1,{4}2/8p4>8[2:1],
{8}4,C,8<4[4:1],C,4V68[16:3],C,2,{16}1,2,
{8}3bx-8[8:1],{16}7,6,{8}5x/3x-6[8:1],{16}7,7,{8}3x,{16}1,8,{8}4/7x-4[8:1],3,
7x,{16}3,2,{8}7/1x<6[8:1],{16}2,3,{8}1x/4x-7[8:1],{16}3,2,{8}4x/1x,3,
2/8x>3[8:1],7,8x/6,{16}5,6,{8}4/7x-4[8:1],{16}3,2,{8}7/1x,2,
{12}3bxh[12:1],4h[12:1],2h[12:1],6bxh[12:1],5h[12:1],7h[12:1],1bxh[12:1],3h[12:1],2h[12:1],8bxh[12:1],6h[12:1],7h[12:1],
{1}C,
