&title=Funk Boogie
&artist=藤森崇多 feat.KOOL BOYS
&first=-0.125
&des=with me. respect for sakurago
&lv_5=13+
&inote_5=(127.1){4},{16}4/6,6,{8}3,4/2,{16}5,5,{8}4/6,{16}5,3,
{8}4/2,3,{16}6/4,6,{8}3,4/2,{16}3,3,6/4,6,{8}3,
4/2,3,{16}4/6,4,{8}7,4/2,{16}3,3,{8}4/6,{16}5,5,
{8}4/2,1,{4}4/8<5[8:1],4/8>3[8:1],4/8-4[8:1],
4/8,4/2h[8:1],4/3h[8:1],{8}4/1,3,
{16}4/6,6,{8},{4}4/2h[8:1],4/3h[8:1],4/8v7[8:1],
4/8,4/6h[8:1],4/5h[8:1],{8}4/7,5,
{16}4/2,2,{8},{4}4/6h[8:1],4/5h[8:1],4/1v3[8:1],
4/1,4/2h[8:1],4/3h[8:1],{8}4/1,3,
{16}4/6,6,{8},{4}4/2h[8:1],4/3h[8:1],4/7v5[8:1],
4/7,4/6h[8:1],4/5h[8:1],{8}7/4,5,
{16}4/2,2,{8},{16}4,5,2,5,4,5,7,5,4,5,1,5,
4,5,8,5,{8}4b,2/6,4,{16}2,1,4,5,8,7,
{8}4,2/6,{16}4,3,5,6,{8}4V61[8:1],2,{4}4/3,
{8}4,2/6-2[8:1],4,2/6,4,1,{16}4,5,3>8[8:1],6,
{8}4,3/8,{4}4h[8:1],4-6[8:1]/3q7[8:1],4/3,
{8}4/5,1,{32}4/2,5,{16},{8}8,{32}2/4,5,{16},{8}8,{32}2-5[8:1]/4-1[8:1],5/1,{16}6/8,{8},{4}2/4,
4-7[8:1]/3-7[8:1],3/4,4-1[8:1]/3-8[8:1],
3/4,{8}4/3-1[8:1],1,4/3-8[8:1],6,{4}4/3-7[8:1],
3/4q1[8:1],4/8q5[8:1],8/4>1[8:1],4-7[8:1]/2-5[8:1],
4/2<6[8:1],4/2-5[8:1],{8}2/4-8[8:1],6,2/4-7[8:1],3,
6/4-1[8:1],5,{4}4/2-6[8:1],4V61[16:3],{8}4/1,2,
4V26[4:1],5/2,4/6V83[4:1],8,4,5,4pp6[8:1],1,
{4}6/4>8[16:3],{8}4/6,5,{32}4,3,2,1,8,7,6,5,{8}4>1[8:1],1,
{4}6/4-8[8:1],{8}4/2,{24}1,2,3,{8}4/7,8,1/4,6,
4/7,2,{16}5,3,,6,{8}4,{16}5,3,4,6,{8}2,
4/8,2/6,{16}4q6[16:5],5,{8},{4}4/2,4-1[8:1]*p8[8:1],
4,{16}4,3,,1,{8}4qq2[8:1],8,{4}2/4<8[8:1],
2/4,{8}4,2/1,{16}4,6,,8h[16:7],{4}4,
4,{8}4,{16}2,1,4,4,{8},{16}4,5,2,2h[16:5],
{4}4,{8}4,8/7,{16}4,5,,1h[16:7],{4}4,
4,{8}4,{16}2,1,4,4,{8},{16}4-8[8:1],5,2,2,
{4}4b,{8}6/4h[8:1],5,2/4h[8:1],3,7/4h[8:1],8,
1/4h[8:1],8,5/4h[8:1],{16}7,7,4h[8:1],5,{8},2/4h[8:1],3,
6/4h[8:1],5,4/2h[8:1],6,4/5h[8:1],2,4/3h[8:1],5,
4/6h[8:1],2,4/1h[8:1],{16}6,6,4h[8:1],5,{8},{4}2h[8:1]/4<1[8:1],
4/6,{8}2/4h[8:1],3,6/4h[8:1],5,2/4h[8:1],1,
7/4h[8:1],8,3/4h[8:1],{16}2,2,4h[8:1],3,{8},6/4h[8:1],5,
2/4h[8:1],3,4/6h[8:1],3,4/2h[8:1],7,4/6h[8:1],2,
4/3h[8:1],8,4/7h[8:1],{16}1,1,4h[8:1],3,{8},{4}6h[8:1]/4>7[8:1],
4/2,{8}4/5,7,{16}4,5,2,1,{8}4,8/6,
{16}4V28[8:1],4,6,6,{8}4v6[8:1],5,4,1,{16}4,5,3,6,
{8}4/5,7,4/3,2,{16}4,5,2,1,{8}4,8/6,
4/3,1,{32}4/1h[2:1],3,{16}2,{32}8,7,6,5,4,3,{16}2,{32}8,7,6,5,4,3,2,1,8,7,6,5,
4,3,2,1,8,7,6,5,{8}4/3,2,{16}4,5,2,1,{8}4,8/6,
{16}4>7[8:1],4,6,6,{8}4p6[8:1],5,4,1,{16}4,5,3,6,
{8}4/5,7,3/4,2,{16}4,5,2,1,{8}4,7/5,
4/3,1,{32}4/1h[2:1],3,{16}2,{32}8,7,6,5,4,3,{16}2,{32}8,7,6,5,4b,3,2b,1,8b,7,6b,5,
4bw8[32:3],3,2b,1,8b,7,6b,5,{4}4b,
