&title=アラジン
&artist=くりたにか / 琴葉茜・葵
&first=0
&des=Num_
&lv_5=13+_
&des_5=Num_
&inote_5=
(133){4},{1},{4},,,{32}1b>6pp4[2:3],
2x/8x,7x/3x,6x/4x,{8}5xh[8:11],,,,,,,,,,,,,,7b,
{32}8b<3qq5[2:3],7x/1x,2x/6x,3x/5x,{8}4xh[8:13],{1},{4},,,{6}2/4,
2/4,2/4,5/7,5/7,7/5,
{8}6/3,4/5,6/3,{16}4-7b[8:1],5,{8}3-8[8:1],4,{4}3,
{16}7b,8,,6/4,,,{8}2/4,{16}2,1,,3/5,,,{8}7/5,
{16}7,8,,6/4,,,{8}2/4-2b[8:1],3/5-7[8:1],4,{4}5,
{16}1b,8,,3/5,,,{8}5/7,{16}8,1,,6/4,,,{8}4/2,
{16}1,8,,3/5,,,{8}5/7,{32}8x/1x,,,8x/1x,,,{16}8x/1x,{8}7x/2x,7x/2x,
{16}2b,1,,3/5,,,{8}7/5,{16}7,8,,6/4,,,{8}2/4,
{16}2,1,,3/5,,,{8}7/5-7b[8:1],6/4-2[8:1],5,{4}4,
{16}8b,1,,6/4,,,{8}4/2,{16}1,8,,3/5,,,{8}5/7,
{16}8,1,,6/4,,,{8}4/2,5/4-2[8:1]*-8[8:1],5/4,{4}4,
{16}1,,,8,{8}1V35[4:1],7,1h[4:1],,,6/2,
3/7,{16}2,1,{8}3-8[8:1],5,5/3,5,{4}5/1>5[4:1],
5<1[4:1],1>5[4:1],5<1[4:1],1>5[4:1],
{16},,,,,,,6,{8}5-1[8:1],5,{4}3/5,
{16}8,,,1,{8}8V64[4:1],2,8h[4:1],,,3/7,
6/2,{16}7,8,{8}6-1[8:1],4-1b[8:1],6,4,{4}8<4[4:1],
4>8[4:1],8<4[4:1],4>8[4:1],8<4[4:1],
{16},,,,,,,3,{8}4-7[8:1],4,{4}4/5-8[8:1],
3/5-2[8:1],7/5-8[8:1],4/5-2[8:1],5/6,
{8}1,{16}1,8,{8}1,{16}3-1b[8:1],4,{8}3-5[8:1],3x,{4}3x,
6-8[8:1],6/3-1[8:1],{2}3/6-8[8:1]*-4[8:1],
{8}2,{16}1,2,{8}1,{16}7,8,{8}7,{16}B4,B5,B6,B7,B8,B1,
{2}2xV47b[4:1],{8}8,8,{4}8/1h[4:1],
{8}8,{16}1,8,{8}1,{16}3,4,{8}3,{16}6,5,{4}6h[4:1],
{8}2,{16}5,4,{8}5,{16}2,1,{8}2>5[8:1],8h[8:3],{4}2,
{1}C/B4/B3,
{32}5/1,2x/6x,3x/7x,4x/8x,,,,,{4}8/3h[8:1],{8}8/4,3-5[8:1],{4}8/3h[8:1],
{8}8,4,8/5,4,8/5,4,{4}8/5,
{8}8,{16}1,1,{8}8/1,{16}2,2,{8}8/2,{16}3,3,{8}8/3,{16}4,4,
{8}8/4,{16}5,5,{8}8/5,{16}3,3,{8}8/3,4,{4}8/5,
{32}8/4,7x/3x,6x/2x,5x/1x,,,,,{4}1/6h[8:1],{8}1/5,6h[8:1],1,5,
1/6,5,1/6,5,1/6-4[8:1],5,{4}1,
1/5h[8:1],1/6h[8:1],1/7h[8:1],1/8h[8:1],
{16}1,8,1,8,,,6,5,{32}6x,,,6x/3x,,,{16}6x/3x,{8}6x/3x,4,
{4}2bh[8:1]/7-3[8:1],{8}7/2-6[8:1],1,{4}2/4-8[8:1],{8}4/3,2,
3/6,{16}3,5,{8}4<4[8:3],3,{2}4/6h[8:3],
{16}5,6,5,6,4qq4[4:1]*pp4[4:1],6,4,6,{2}4-8[8:1],
{8}7-5[8:1],1-5[8:1],7qq3[8:3],1,{2}7b,
{8}2bh[8:1]/4-7[8:1],5,4/1-5[8:1],2,1/8-6[8:1],7,8/1-3[8:1]*-4[8:1],1,
{4}1b-7[8:1]*-6[8:1],1b-3<5v2[8:3]*-4[8:1],{2}1b,
{16}5,4,5,4,{8}5,{16}3,4,{8}3,3,6/2,7/3,
{16}4,5,4-1[8:1],5,{8}4-7[8:1],4x,{4}4x,8-5[8:1],
2h[8:1]/8b-3[8:1],6h[8:1]/8b-5[8:1],2h[8:1]/8b-3[8:1],6h[8:1]/8b-5[8:1],
8b/4h[4:1],{8}6-4[8:1],{16}6-8[8:1],5,{2}6-2[8:1],
{16}7,8,6,1,5,2,4,3,{8}4,{16}5,3,{8}4,{16}5,3,
6,4,6,3,{8}5,1/6-4b[8:1],6/1-3b[8:1],6x,{4}1x-6[8:1],
3h[8:1]/1b-4[8:1],7h[8:1]/1b-6[8:1],3h[8:1]/1b-4[8:1],7h[8:1]/1b-6[8:1],
1b/3h[8:1],{8}7/2,1,{16}2/7-3[8:1],,,1,{8}7,2,
{4}2qq2[4:1]/4-7[8:1],4/2V46[4:1],,1V35[4:1],
5xV31[4:1],1xV75[4:1],5xpp4[4:1],4xqq4[4:1],
{8},,7,{16}5,6,{8}4-1[8:1],6,{4}4,
{16}2,4,3,5,4,5,3,5,{8}3,{16}3,4,{8}2,{16}3,6,
4,6,5,6,{8}4,8/3-5b[8:1],3/8-6b[8:1],3x,{4}8x>5[4:1],
5xV71[4:1],1xV75[4:1],5x>8[4:1],8xq6[4:1],
6xp8[4:1],8x-3[8:1]*-5v3[4:1],,2-8[8:1],
{16}2/7,,,6,{8}5-2[8:1],6,5/8-4[8:1],7,8/4,3,
{12}7x/5x,7x/5x,7x/5x,6x/3x,6x/3x,6x/3x,2x/4x,2x/4x,2x/4x,3x/6x,3x/6x,3x/6x,
7x/4x,7x/4x,4x/7x,5x/2x,2x/5x,5x/2x,6b/3b,6/3,3/6,7b/1b,1/7,7/1,
{16}7b,8,,6/4,,,{8}2/4,{16}2,1,,3/5,,,{8}7/5,
{16}7,8,,6/4,,,{8}2/4-2b[8:1],3/5-7[8:1],4,{4}5,
{16}1b,8,,3/5,,,{8}5/7,{16}8,1,,6/4,,,{8}4/2,
1/4-7[8:1],5,4/1-5[8:1],2,{4}4-7[8:1]/1-3[8:1],4/1,
{16}2b,1,,3/5,,,{8}7/5,{16}7,8,,6/4,,,{8}2/4,
{16}2,1,,3/5,,,{8}7/5-7b[8:1],6/4-2[8:1],5,{4}4,
{16}8b,1,,6/4,,,{8}4/2,{16}1,8,,3/5,,,{8}5/7,
8/1-5[8:1],2,1/6-2[8:1],7,{4}6/3,{384}6pp4[8:3],3qq5b[8:3],{16},,,{64},,,{96},{1}6b/3b,
E
