&title=With You
&artist=Cashew
&first=0
&lv_5=14
&des_5=H2O2ange
&inote_5=
(170){4},,,,{1}8<6v1[2:1]/2>4v1[2:1],
8-4[2:1]*-4[2:1],
7-2[2:1]/8-5>3[2:1],
4s8[2:1]/1z5[2:1],
7v4[2:1]/1v4[2:1],
5<1[2:1]*>1[2:1],
{8}7bp1>4[2:3]/2bq8>4[2:3],{2},{8},{4},,,{8},{16}E8,
E7,{4}E6,
3b/7b,{8}5,4,3/7,6,2,7h[8:1]/1pp5[8:3],
1,{4},{8}8h[2:1],{4},{8}3q4<4[4:7],3x,
E4,B5,B7,B1,,B3,{16}A4,,{8},8xh[4:1],
{2},{8}C,{4}B6,
5/3,{8}4,5,6/2,3,7,8/2h[8:1],
8p6[0.1765##0.5294],{4},{8}1,{4},3>6<3[4:7],
{8}A3,A2,A1,A8,,A7,{16}A6,,{8},A6,
A7,A8,A1,A2,A3,A4,A5,
{4}2/7,{8}5,4,3/7,6,2,7h[8:1]/1pp6[8:7],
{16}1,{4},{8},{16}8h[8:1],{4},6<6<3[4:7],
{8}A6,A7,A8,A1,,A2,{16}A3,,{8},A4,
A5,A6,A7,A8,A1,A2,A3,
{4}4/5,{8}4,5,6/2,3,7,8/2h[8:1],
8qq4[2:1],{4},{8}1h[4:1],{2},{4}6b/1b,
{8}5bx,8b/3b,,1bx,{16}2bh[#0.7058792]/7bh[#0.7058792],,{4},{8},{32}E1,
E2,E3,E4,E5,E6,E7,E8,1x,2x,3x,4x,5x,6x,7x,8x,{4}1bx,
{2}6/3h[2:1],{8}5h[8:1],4h[8:1],1pp5[2:1],2h[8:1],
{4},B4,E4,{8}6h[8:1],7h[8:1],
{4}8h[8:7],{8}B5,C,B8,B1,B2,Ch[8:7],
{4},{8}B5,B6,B7,B8,{16}1,8,7,6,
{8}5/1,{4},{8}6,6/8,6/1,6/2,6/3h[8:3],
{4},1h[2:1],{8},5h[8:1],,{24}1/5,8/4,7/3,
6/2,5b/1b,{4},{24},{8}8b/3b,{4},{8}1b/5b,2bh[8:3]/6bh[8:3],
{2},{16}8,8,8,8,{4}8,
6/1v6<3[2:1],{8}8,5,,7xh[8:1],{4},3/8v3>6[2:1],
{8}1,4,,2xh[8:1],{4},6/1p6>1[4:5],
{8}7,6,,7xh[8:1],,5x,
,6x,,7x,,8x,B7,B8,
{4}7/2v7>4[2:1],{8}8,6,,8xh[8:1],{4},1/6v1<4[2:1],
{8}2,3,,2xh[8:1],{4},6/1v6<3[2:1],
{8}8,5,,7xh[8:1],,5x/2x,
,1/4,,1/8,,1/7,2/6,3/5,
{4}3/5-3<7[2:1],{8}3,1,,2h[8:1],{4},6/4-6>2[2:1],
{8}6,8,,7h[8:1],{4},7/4q7>4[4:5],
{8}6,5,,7x,,8x,
,7x,,6x,{16},,{8}5x,B5,B6,
{4}2/7pp5[2:1],{8}5,2,,4xh[8:1],{4},6/3qq4[2:1],
{8}7,6,,8x,7,6,
5b/1b,2,3,4b/8b,7,6,{4}5bh[4:1]/1bh[4:1],
,{16}4,5,3,4,2,6,5,7,1,8,3,6,
{4}2/7,{8}2h[8:1],6,,1h[8:1],5,4,
7h[8:1],3,8h[8:3],4,,2,{4},2/8,
{8}4q4<4[1:1],1/7,,8,,7xh[8:5],
{4},,,{8}6,5,
5h[8:1],1,3,4h[8:1],8,5,{4}2h[4:1],
6h[8:1],{8}2,5,,2/8,,5pp1[16:11],
8/2,{4},{8}1,{4},2,
{16},2,3,4,5,1,2,3,4,8,1,2,3,4,5,6,
{4}7p4>5[4:5],{8}4,3,,1,{4}2h[4:3],
,,,{8}1/7pp5[2:1],6,
{4}7/4,{8}5<4[4:3],3,,1,,2h[8:5],
{2},{4}7,6,
{8}1/8,2,2,2/6,,6,{4}6/3,
{8}4,6/4,,6,{4}6/5,5/4,
{8}3/4,2/5,4/5,4/7,,5/6,6/1,2/8,
7/3,5/6,8/1,1/2,{32}2b,3,4,5,6,7,8,1,2,3,4,5,6,7,8,1,
{8}2,{4},{16}1,1,1,{8},{16}2/8,{8},3/7,
4h[8:1]/6h[8:1],{4},{16}8,8,8,{8},{16}7/1,{8},6/2,
5h[8:1]/3h[8:1],{4},{16}2,2,2,{8},{16}3/1,{8},8/4pp4qq4[1:1],
{24}4/5,{6},{24}7,{8},8,{24}1,{6},{24}8,{8},6,
7h[8:1],{4},{16}7,1,{4}8h[4:1],{16}3,7,4,6,
3,5,2,8,4,6,3,5,1,8,2,7,4,5,{8}3,
5/6,{16}2,1,{8}2,4/3,{16}7,8,{8}7,5/6,{16}4,4,
{8}4,4/5,{16}2,1,3,7,8,6,4,5,3,6,1,8,
{4},{24}7b/8b,1,2,3,4,5,{8}6,{4},{16}3,7,
{8}1,6,{16}3,5,2,8,4,6,3,5,1,8,2,7,
4,5,3,4,2,6,5,7,3,4,2,6,5,7,2,1,
3,7,8,6,2,1,4,7,1,6,3,4,5,6,7,8,
{4}6/1-6-3[4:1],{32}3-8[4:1],{8},{32}5,{16},{4}8>4[2:1],{32}5,{8},{32}7,{16},8,
{8},{16}7,{8},6,{16},5,,{32},2,{16},1/2,3/8,7/4,
{8}5b/6b,{16}7,1,{8}7,3b/4b,{16},1,8,1,{4}2bh[4:1]/7bh[8:5],
{8},2,2,2,{16}1,7,1,7,8,8,8,8,
{4}8qq4>3[2:1],{8}5,6,,7xh[#0.1764679],{4},
2/7>8-3<5[2:1],{8}2,4,,2xh[8:1],{4},
1qq1pp1-4<5[4:5],{8}7,6,,7xh[8:1],,5x,
,6x,,7x,,8x,B7,B8,
{4}4/7v4v1[2:1],{8}2,3,,2h[8:1],{4},6/1<8-6-2>5[2:1],
{8}7,5,,1h[8:1],{4},3/7>1-5-3[2:1],
{8}2,3,,2xh[8:1],,3x/2x,
,1/4,,1/8,,1/7,2/6,3/5,
{4}4/5<5[2:1],{8}1,3,,2xh[8:1],{4},4/3<4-8[2:1],
{8}6,5,,7h[8:1],{4},5/8>2v3<5>3v2<8[8:11],
{8}6,5,,7,,8,
,7,,6,{16},,{8}7,B5,B6,
{4}4/7<6-2-8-4[2:1],{8}3,4,,2xh[8:1],{4},6/3qq4[2:1],
{8}7,6,,8x,7,6,
5b/2b,3,4,4b/7b,7,6,{4}3bh[4:1]/5bh[4:1],
{8},3,3,3,{16}3,5,3,5,4,4,4,4,
{8}4bx,{4},{16}2pp5[2:1],2,2,{8},{16}8,{8},7,
6h[8:1],{4},{16}8qq4[2:1],8,8,{8},{16}1,{8},2,
3h[8:1],{4},{16}3,3,3,{8},{16}3/8,{8},1/5qq5pp5[1:1],
{24}5/2,{6},{24}2,{8},1,{24}8,{6},{24}1,{8},3,
2h[8:1],{4},{16}7,1,{4}8h[4:1],{16}2,6,1,7,
2,5,3,4,3,6,5,6,3,4,1,6,5,8,{8}2,
5/6,{16}2,1,{8}2,4/3,{16}7,8,{8}7,5/6,{16}4,4,
{8}4,4/5,{16}2,1,3,7,8,6,4,5,3,6,1,8qq4>3[16:9],
{4},{8}4,3,,2xh[8:1],{4},6/8>1-4<6[2:1],
{8}5,6,,7xh[8:1],{4},4pp4qq4[4:3],
{8}6,7,,6xh[8:1],,8x,
,{16}5/2,6,7,8,1,2,3/6,7,8,1,2,3,7/4,8,
{4}1-4<5[8:3],{8}7,6,,1,,{24}5/1v4[8:5]*v4[8:5],8/4,3/7v4[24:13]*v4[24:13],
2/6,5/1,{4},{12},,{2}C,
{4}5h[8:1]/2-4v5-7[8:5],6h[8:1],8h[8:1],5xh[8:1],
2h[8:1]/1-5-1[8:5],4h[8:1],3h[8:1],2h[8:1],
3h[8:1]/6-2>5-8[2:1],2h[8:1],1h[8:1],3h[8:1],
4h[8:1]/8-5q4[8:5],3h[8:1],1h[8:1],2h[8:1],
8h[8:1]/2v5v8[8:5],5h[8:1],7h[8:1],6h[8:1],
3h[8:1]/7<7[8:5],5h[8:1],1h[8:1],4h[8:1],
{8}6/1,2,3,4/8p1>4[0.9412##4.1765]*p1>4[0.9412##4.1765],7,6,{24}8,1q8<5[24:71],{6}2,
