&title=behind
&artist=礒部花凜/芳野由奈/Lynn
&first=0.5
&des=仙彗星座
&lv_5=12+
&inote_5=(145)
{1},
{8}3qq5[8:8],4h[8:9],,,,,,,,,,,C,,,,7qq6-8[8:10],1pp8[8:9],,,,,,,,,,,,,,,
{8}5<2[8:6],,,3h[8:2],,,4h[8:2],,,5h[8:2],,,5-8[8:1],,,,
{8}4-2-8-6[8:6],,,6h[8:2],,,5h[8:2],,,4h[8:2],,,4-1[8:1],,,,
{8}5<2[8:6],,,3h[8:2],,,4h[8:2],,,5h[8:2],,,5-8[8:1],,,,
{4}4h[4:6],,,,E1,,E7,,
{8}3h[8:6]/4h[8:6],,,,,,,,5h[8:6],4h[8:5],,,,,,,6h[8:8]/5<1[8:4],,,,,,,,2<6[8:4],,,,5h[8:2],,,,
{8}4x-6[8:1],,3h[8:1],,3h[8:1],,2h[8:1],,1x-3[8:1],,8h[8:1],,8h[8:1],,7h[8:1],,6x<1[8:1],,5h[8:1],,4h[8:1],,3pp7[8:4],,2hx[8:2],,,,2,,3>6<3[4:12],,
{32}E7,B7,,,,,,,,,,,,,,,,,,,,,,,,,,,,,,,B4,E4,,,,,,,,,,,,,,,,,,,,,,,,,,,,,,,E5,B5,,,,,,,,,,,,,,,,,,,,,,,,,,,,,,,
{8}8xz4[4:2],,,,,,,,1h[8:2],,7,5h[8:2]/6,,6h[8:3],8,,2h[8:2],,5,3/4h[8:2],,1,2h[8:2],,
{8}7<4[8:2],,,,8xp3[8:2],,,,1<4[8:4],,,,,,3>5[8:6],,Ch[8:8],,,,,,,,,,,,
{32}B5,B4,,,,,,,,,,,,,,,
{8}1<6[8:1],,8h[8:2]/1,,,4,3,2/4<7[8:1],,3,4,5>2[8:1],,,8-3[8:1],,7x/8x,6,7,46,3x,25,3,
{8}1>4[8:2],,4<7[8:2],,8,,8h[8:2],,1,
{8}8>3[8:1]/1,,1h[8:2]/8,,,5,6,7/5v2[8:1],,6,5,4v7[8:1],,,1-6[8:1],,2x/1x,3,2,53,6x,74,6,
{8}1>4[8:1],,6<1[8:1],,5,5-2[8:1],,8-4[8:1]/5,,8x<6[8:1]/1x>3[8:1],,1xp8[8:3]/8x,,,5,6,7-2[8:1],,3-6[8:1],,8<4[8:2],,,,,
{8}1,25,6,47,8,47,3,2/5<1[8:2],,1qq1[8:3]*pp1[8:3],,,,,,,
{8}2x/8x-6[8:1]*-2[8:1],,8x-4-2[8:3],,,5,6,7v4[8:1],,3-8[8:1],,5<3[8:3],,4,4,,4,4,5,5,3,25,6,4-2[8:1]/7-5[8:1],,
{8}4pp3[8:3],,,,,1-7[8:1],,16,6,5,5,1,1,
{8}8-2[8:1]/2,,83,3,4,4,8,8,7-4[8:1]/1,,
{8}47,3,2,1,5<8[8:1],1,2,3,7-4[8:1],4,3,2,5<8[8:1],1,2,3,
{4}4bxp5[4:7]/8bx-5[4:7],
