&title=逆光のフリューゲル
&artist=水樹奈々,高山みなみ,ツヴァイウィング
&first=0.45
&des=SINAMOKU
&lv_5=13+
&inote_5=(148)
{8},,,2x/4x,1x/8x,5x/7x,1x/8x,3x/6x,{64}4xb>5<4[8:11]/5xb,E5,,
{64}B6/B3,E7/C1f/E3,B7/B2,B8/B1,E1,
{8},,C1h[4:1],,,,,E5,,,E1,,,18,,
{128}5xb-7>8-4[8:4]*-7>8-4[8:4],4xb-2<1-5[8:4],{64}E5,,
{64}B6/B3,C1f,B7/B2,,E1,
{8},,,,,,,E1,,,C1,,3/4,3/4,,E1f/B1/B8/5<2[8:4]b,,,{16}E3,B3,{2}B4,
{8}4>7[8:4]b/E1f/B1/B8,,,,{16}5,,,6,,,6,,
{8}7h[4:3]/8xbV64[8:1],,8,,2-6[8:1]*-6[8:1],,2,B8/B7,
{8}2h[4:3],,8,,5-1[8:1]*-1[8:1],,5,C1,
{8}3xb/8xb,,1/2,3,4h[4:1]/5,{16},6,6,,5,,
{16}3h[8:1]/7xh[8:1],,,3h[8:1]/4xh[8:1],,,3/4x,,
{16}6h[8:1]/2xh[8:1],,,6h[8:1]/5xh[8:1],,,4/7x,,
{16}1b/8b-4[8:1],,,2,8,,E3,C1,E7,,3/6,,4,5,4,5,
{16}2>5[8:1],,B3/B4,,2/1,,8,8,,1/7,,3,4,,2/5,,
{16}6<1[8:1],,B8/B7,,5/6,,4,4,,3/5,,6,5,,4/7,,
{16}1-5[8:1],,C1,,1/8,,6,6,,4/7,,3,4,,2/5,,
{4}6xbh[4:1]/C1,8xbh[4:1],1xbh[4:1],3xbh[4:1],
{16}7V53[8:1],,B6/B5,,7/8,,1,1,,2/8,,6,5,,4/7,,
{16}3V17[8:1],,B2/B1,,3/4,,5,5,,6/4,,3,4,,2/5,,
{16}8-4[8:1],,C1,,8/1,,3,3,,5/2,,6,5,,7/4,,
{4}3bh[8:1]/C1,8bh[8:1]/C1,1bh[8:1]/B5,6bh[8:1]/B1,
{16}2/5,,3,4,3h[8:1],,1,,4/7,,6,5,6h[8:1],,4,4,
{8}3v8[8:1]/5,6,3/4,7,6/4,3,5/7,2,
{4}1xh[4:1]/8x,E3/B3/A3,{8}4<7[8:1]/1,2,4/3,,
{4}8h[4:1]/2,E7/B7/B6,5-1-3[4:1]/7,6/5,
{8}7-4v6[4:1],4,7,,3,3,5h[8:1]/2h[8:1],,
{4}7xb/8x,3xb/5x,1xz5[8:1]/2xs6[8:1],1b/2b,
{4}4x/7xh[4:1],A6/B6/E6,{8}5-1[8:1]/8,7,6/5,,
{4}2h[4:1]/7,B1/B2/E2,8-4-6[4:1]/3,1/8,
{8}2v7V15[4:1],7,2,,6,6,4h[8:1]/7h[8:1],,
{8}1x/2xb,3,6xb/4x,5,3xq8[8:1]/4xp7[8:1],,3b/4b,,
{8}1/6,,2-5-1[4:1],4,2/4h[8:1],,7v4-6[4:1],3,
{8}7/3h[8:1],,2v5[8:1],7,2/7,6h[8:1],4h[8:1],8,
{4}1-5[8:1]/7-5[8:1],1/7,3h[8:7]/6-2[8:1],6,
{16}E1/B8,,,E4,,,{32}A6f,D7,A7,D8,A8,D1,A1,D2,{8}A2,4V26[4:1],8,
{8}4/8h[8:1],,7-4-8[4:1],5,7/5h[8:1],,2v5-3[4:1],6,
{8}2/6h[8:1],,7v4[8:1],2,7/2,3h[8:1],5h[8:1],1,
{4}2-4[8:1]/8-4[8:1],2/8,3-7[8:1]/6h[8:7],3,
{16}E1/B1,,,E6,,,A3,,{8}4-8[8:1]/5-1[8:1],2/7,4/5,,
{16}6v4[8:1],,3x,3x,,,,,2v5[8:1],,7x,7x,,,,,
{16}8-4[8:1],,2x,2x,,,3,,6,,1x/8x,1xh[16:3]/8xh[16:3],,,,,
{16}5-1[8:1]/7,,,4,5,,3,,2/4-8[8:1],,,5,4,,6,,
{16}4<7[8:1]/7,,,3,4,,1,,2h[8:1]/8h[8:1],,,4h[8:1]/6h[8:1],,,3/7,,
{24}1x/8x,2,3h[12:1],,7x,6,5h[12:1],,2x,3,4h[12:1],,
{24}8x,7,6h[12:1],,3x,4,5h[12:1],,1x,8,7,6,
{16}5b/1b,,,,2/6,,,,
{4}4h[32:11]/5h[32:27],{32},,,,E4,B3,B2,E2,
{4}1xh[32:25],{32},,,,E6,B6,B7,E8,
(130)
{4}8x>6[4:1],8,
(120)
{4}3,
(148)
{16}2b-4[8:1]/5b,,,7,2-6[8:1],,5,,8-4[8:1]/2,,,1,8,,B2/E3,,
{16}6/1,,7,8,{8}5h[4:1],E4,2,3/4,8,6/2,
{16}4/7-5-3[4:1],,,2,7,,C1,,1b-5[8:1],,,B3/B4,,,B6/B7,,
{16}3/8,,2,1,{8}4h[4:1],B5,6,3/5,2,8x-3-7-5[4:1]*-3-7-5[4:1]/1x,
{8},4,4,4,,6/4,7,8/1x-6-8-3[4:1],
{8},5,5,5,6/4,,7/8,{16}6,5,
{16}7xv1[8:1]b,,,B5/E5,,,B3/E4,,2xv4[8:1],,,E1/B1,,,E8/B7,,
{32}6x/3x,5,4,3,2,1,8,7,{8}6h[4:1],,{32}3,,,4,,,2h[16:3]/5,,{8},1,
{16}7b-5[8:1]/4b,,,2,7-3[8:1],,4,,1q5[8:1]/7,,,8,1,,B7/E7,,
{16}3/8,,2,1,{8}4h[4:1],E6,7,6/5,1,3/7,
{16}2-4[8:1]/5,,,7,2-6[8:1],,5,,8p4[8:1]/2,,,1,8,,3,,
{16}C1h[16:3]/A5/B5/E6,,,A1/B1/E2,,,3xbv8[8:1]/7xv4[8:1],,,,3x/7xb,C1f,,,,,
{16}2>5[8:1],,,B3/B4,,,B7/B8,,6<1[8:1],,,B1/B2,,,B5/B6,,
{16}3v6[8:1],,,B4/B5,,,B1/B8,,{4}1xw5[8:1],1x,
{16}3h[8:1]/8xh[8:1],,,3h[8:1]/6xh[8:1],,,2/4x,,
{16}6h[8:1]/1xh[8:1],,,6h[8:1]/3xh[8:1],,,7/5x,,
{1}8b-4>2-5<8[2:1]b/1xbh[1:1],
{16}4xv7[8:1],,3,3,,,2xv5[8:1],,6,6,2,,8x,,37,,
{16}4/5,,2,8,4q8[8:1],,,,4/7,,6,,5/1,,2,,
{16}3h[8:1]/4,,8,,5/6h[8:1],,1,,{32}7b/8x,B7,C1f,B3,A3,,,,1x/2b,B2,C1f,B6,A6,,,,
{128}1xbqq4[2:1],8xbqq5[2:1]*qq5[2:1],,,{32},{16},,,{4},,,
{16}1,8,1,8,2,7,2,7,3,6,3,6,4,5,4,5,
{16}2-4<5[8:1],,B3/B4,,2/1,,8,8,,1/7,,3,4,,2/5,,
{16}6-8>1[8:1],,B8/B7,,5/6,,4,4,,3/5,,6,5,,4/7,,
{16}1-5[8:1],,C1,,1/7,,6,6,,4/7,,3,4,,2/5,,
{4}6xbh[4:1]/C1,8xbh[4:1],2xbh[4:1],4xbh[4:1],
{16}7V53[8:1],,B6/B5,,7/8,,1,1,,2/8,,6,5,,4/7,,
{16}3V17[8:1],,B2/B1,,3/4,,5,5,,6/4,,3,4,,2/5,,
{16}8-4[8:1],,C1,,8/2,,3,3,,5/2,,6,5,,7/4,,
{4}3bh[8:1]/B6,7bh[8:1]/B2,1bh[8:1]/E5,5bh[8:1]/E1,
{16}2/6,,3,4,2h[8:1],,8,,3/7,,6,5,7h[8:1],,4,4,
{8}3v8[8:1]/5,6,3/4,7,6/4,3,5/7,2,
{1}B5f/E5/E6/A5/8xV26[2:3],,{2}E1,{32}3/7,4,5,6,7,8,1,2,{4}3h[4:1],
{4}1xb,4xb/5x,7xz3[8:1]/8xs4[8:1],7b/8b,
{8}2/5x,2xh[8:3]/5,,,1q5[8:1]b,,18,,4x/7,4/7xh[8:3],,,8p4[8:1]b,,1/8,,
{8}3/6,3h[8:3]/6,,,2-6[8:1]b,,2/1,,
{8}7xb/8x,6,2xb/5x,3,5xp8[8:1]/4xq1[8:1],,4b/5b,,
{8}3x/6x,,7V15[4:1],4,7/4h[8:1],,3v8-2[4:1],6,
{8}3/6h[8:1],,7v4[8:1],3,7/3,2h[8:1],5h[8:1],8,
{4}1-3[8:1]/7-3[8:1],1/7,5h[8:7]/2-6[8:1],2,
{16}B8/E1,,,E6,,,{32}A2f,D3,A3,D4,A4,D5,A5,D6,{8}A6,1V37[4:1],4,
{8}1/4h[8:1],,2V84[4:1],5,2/5h[8:1],,6v1-7[4:1],3,
{8}6/3h[8:1],,2v5[8:1],6,2/6,7h[8:1],4h[8:1],1,
{4}2-6[8:1]/8-6[8:1],2/8,4h[8:7]/7-3[8:1],7,
{16}E1/B1,,,E4,,,A7,,{8}1-5[8:1]/8-4[8:1],3/6,1/8,,
{16}2v8[8:1],,,7x,,,,,6v1[8:1],,3x,3x,,,,,
{16}4-8[8:1],,6x,6x,,,,,5-1[8:1],,2x,2x,,,,,
{16}8/3-8[8:1],,,6,3,,4,,1/6-1[8:1],,,3,6,,5,,
{16}7/3<6[8:1],,,4,3,,8,,1h[8:1]/7h[8:1],,,3h[8:1]/5h[8:1],,,2/6,,
{24}8x/1x,7,6h[12:1],,2x,3,4h[12:1],,7x,6,5h[12:1],,
{24}1x,2,3h[12:1],,6x,5,4h[12:1],,8x,1,2,3,
{16}8b/4b,,,,3h[4:1]/7,,,,{32}6,,,5,,,4/7,,,,,,1/8,,,,
{16}2b-4[8:1]/5b,,,7,2-6[8:1],,5,,8-4[8:1]/2,,,1,8,,B2/E3,,
{16}6/1,,7,8,{8}5h[4:1],E4,2,3/4,8/1,6/2,
{16}4/7-5-3[4:1],,,2,7,,C1,,1b-5[8:1],,,B3/B4,,,B6/B7,,
{16}3/8,,2,1,{8}4h[4:1],B5,6,3/5,2,8xv3-1-7-5[4:1]*v3-1-7-5[4:1]/1x,
{8},4,4,4,,6/4,7,8/1xv6<3[4:1],
{8},5,5,5,6/4,,7/8,{16}6,5,
{16}7xv1[8:1]b,,,B5/E5,,,B3/E4,,2xv4[8:1],,,E1/B1,,,E8/B7,,
{32}6x/3x,5,4,3,2,1,8,7,{8}6h[4:1],,{32}3,,,4,,,2h[16:3]/5,,{8},1,
{16}7b-5[8:1]/4b,,,2,7-3[8:1],,4,,1q5[8:1]/7,,,8,1,,B7/E7,,
{16}3/8,,2,1,{8}4h[4:1],E6,7,6/5,1/8,3/7,
{16}2-4[8:1]/5,,,7,2-6[8:1],,5,,8p4[8:1]/2,,,1,8,,3,,
{16}C1h[16:3]/A5/B5/E6,,,A1/B1/E2,,,3xbv8[8:1]/7xv4[8:1],,,,3x/7xb,C1f,,,,,
{16}7<4[8:1],,,B6/B5,,,B2/B1,,3>8[8:1],,,B8/B7,,,B4/B3,,
{16}6v3[8:1],,,B5/B4,,,B8/B1,,{4}8xw4[8:1],8x,
{16}6h[8:1]/1xh[8:1],,,6h[8:1]/3xh[8:1],,,7/5x,,
{16}3h[8:1]/8xh[8:1],,,3h[8:1]/6xh[8:1],,,2/4x,,
{1}1b-5<7-4>1[2:1]/8xbh[1:1],
{16}5xv2[8:1],,6,6,,,7xv4[8:1],,3,3,7,,1x,,2/6,,
{16}5/4,,7,1,5p1[8:1],,,,5/2,,3,,4/8,,7,,
{16}6h[8:1]/5,,1,,4/3h[8:1],,8,,
{32}2b/1x,B2,C8f,B6,A6,,,,8x/7b,B7,C8f,B3,A3,,,,
{8}8xb/1xb<3[4:5]b,,,B5,,,E3/D3/A2,,,E1/D1/A8,,,6,,4,,
{4}2xh[1:1]/7xh[1:1],,,,,,4v7[8:1]/5v2[8:1],4/5,
{8}1h[4:1]/6x,,7<4[8:1],8x,7/1,,3x/8h[4:1],,
{8}2>5[8:1],1x,2/8,,3x/6x,,1x-5[8:1]/8x-4[8:1],,
{8}1x/8x,,E7/B6,B2/E3,C1h[4:1],,4,,
{32}2/6<3[4:1],B2,C1,B6,{8}A6,,5xh[8:3],,,
{8}4-8[8:1],,
{16}1xh[8:1]/4b,,,,5,3,5,,6h[8:1]/4,,,,4,6,4,,
{8}E3/B3/B2/5-1[8:1],,5/8,8,{32}7/2v5[8:1],3/6,4/5,,,,,,{4}2x/8x,
{16}6,4,6,4,8,1,8,1,5,3,5,3,8,1,7,2,
{8}8x<5[8:1]/1x,,8/2,4>1[8:1],,4/5,7,7,
{8}3/6v1[8:1],4,5/6,,5-1[8:1]/2,3,4/5,,
{8}3V57[4:1]/8,,7<1[4:1],E1,E3,E5,E7,,
{8}7xb-4[8:1]/8,,,2xb-6[8:1],,2/1,8,7xbpp3[4:1]/C1f,
{8},,,2,,1/8,{16}5,4,7,2,
{8}5<3[2:1]*<8[4:1],,,,,,4h[4:1],,5,2-5[8:1]/7,,8-4[8:1]/2,,8/1,,3/7,
{16}1x/5,8,7,6,5x/1p5[8:1],4,3,2,1x/5,,,,2x/B6f/B5,,,,
{16}8x/4,1,2,3,4x/8q4[8:1],5,6,7,8x/4,,,,7x/B4/B3f,,,,
{128}1xb-3-5p3>7[4:13],5x-7-1p7<3[4:13]b,{64},{32},{16},{8},{4},,,
{1},,{4},,,6xv1<4[2:1]*v1<4[2:1],
{4}6xh[4:3],,,3xv8>5[2:1],
{4}3xh[4:3],,,6,
{4}5/7,3,2/4,1/8,
{4}2-6[8:1]/7-1[8:1],,4-1[8:1]/5-8[8:1],4/5,
{16}7h[2:1],,5x,5x,,,,,8v3[8:1],,6x,6xh[16:5],,,,,
{16}2h[2:1],,4x,4x,,,,,1-5[8:1],,3x,3x,,,,,
{16}6-2[8:1]/8,,,1,6,,5,,1/3-7[8:1],,,8,3,,4,,
{16}5-1[8:1]/8,,,2,5,,4,,2h[8:1]/8h[8:1],,,4h[8:1]/6h[8:1],,,3/7,,
{24}1x/8x,2,3h[12:1],,7x,6,5h[12:1],,2x,3,4h[12:1],,
{24}8x,7,6h[12:1],,3x,4,5h[12:1],,1x,8,7,6,
{32}5b-7-2-6>3>8[2:3]b/1b,B1,C1,B5,{8},
{8},,,,,,,,,,,,{8}E5/B4/B5,,
{8}4xb-1-6[2:1]/5xb-8-3[2:1],,,,,,,,2x-5[8:1]/7x-4[8:1],,,,
{8}8h[2:1]/3,,,C1,5h[2:5],,,C1,
(100)
{1}4>8<4-2-8-6-4-1-6[16:17],{8},,,,
(148)
{16}7b-3[8:1]b/4b,,,2,7b,,1,,2-6[8:1]b/8,,,B3/B4,,,B8/B7,,
{16}8xh,2xh,6xh,1xh,{8}4xbh[8:3],,,2,5/7,1/8,
{16}3bv8[8:1]b/6,,,B1/B2,,,B4/B5,,7bv4[8:1]b/2,,,B5/B6,,,B8/B1,,
{16}2b/6b,,7,8,{32}A5,A4,A3,A2,A1,A8,A7,A6,A5,,,,
{8}3,1/7,4b/2b-5[8:1],
{8},8-3[8:1]/2,8,4bh[4:1]/8b,,6,2/8,7x<4[8:1]/5x,
{8},7x/3x>8[8:1],,3b/6bh[8:3],,,5,{16}3,4,
{16}2xv8[8:1]b,,,B4/E5,,,B6/E6,,7xv5[8:1],,,E1/B8,,,E2/B2,,
{32}3x/6x,4,5,6,7,8,1,2,{8}3h[4:1],,{32}6,,,5,,,7h[16:3]/4,,{8},8,
{16}2b-4[8:1]/5b,,,7,2-6[8:1],,5,,8p4[8:1]/2,,,1,8,,B2/E3,,
{16}6/1,,7,8,{8}5h[4:1],E4,2,3/4,8/1,6/2,
{16}7-5[8:1]/4,,,2,7-3[8:1],,4,,1q5[8:1]/7,,,8,1,,6,,
{16}C8h[16:3]/A4/B4/E4,,,A8/B8/E8,,,6xbv8[8:1]b/2xv4[8:1]b,,,,6x/2xb,C8f,,,,,
{16}7<4[8:1]/3,,,B6/B5,,,B2/B1,,3>8[8:1]/7,,,B8/B7,,,B4/B3,,
{16}6v3[8:1]/2,,,B5/B4,,,B8/B1,,{4}1xw5[8:1],1x,
{16}3h[8:1]/8xh[8:1],,,3h[8:1]/6xh[8:1],,,2/4x,,
{16}6h[8:1]/1xh[8:1],,,6h[8:1]/3xh[8:1],,,7/5x,,
{128}8bx-4>2-5<8[2:1]b,1bx-5<7-4>1[2:1],,,{32},{16},,,{4},,,
{16}4xv7[8:1],,3,3,,,2xv5[8:1],,6,6,2,,8x,,7/3,,
{16}4/5,,2,8,4q8[8:1],,25,,4/7,,6,,5/1,,2,,
{16}3h[8:1]/4,,8,,5/6h[8:1],,1,,
{32}7b/8x,B7,C1f,B3,A3,,,,1x/2b,B2,C1f,B6,A6,,,,
{128}8xb-3-5v2[2:1]b,1xb-6-4v7[2:1],,,{32},{16},,,{4},,,
{16}4,5,4,5,3,6,3,6,2,7,2,7,1,8,1,8,
{8}7xbp4[8:3]/2x,,,,,3,2/5,6,
{16}4xb/7x,,2-6[8:1]/1,3/7h[16:3],,,2,,8bw4[8:1]*-4[8:1],,,,8b,,,,
{24}1xb/6xb,2,3,4,7x,6,5,4,2x,3,4,5,8x,7,6,5,3x,4,5,6,1x,8,7,6,
{24}2x-7[8:1]b/5x,,,,6x,,,,4x-8[8:1]b,,,,3x,,,,1x-5[8:1]b,,,,7x,,,,
{24}6x-3[8:1]b,,,,2x,,,,,,C1h[24:131]f,,
{1},,,,,{8},,,{64}B3/B6,E3/E7,D3/D7/A2/A7,,{16},
{2},,,
E
&inote_6=
