&title=Arcanos
&artist=DJ Totoriott
&first=0
&des=おにねこ
&wholebpm=192
&lv_5=14
&inote_5=(192)
{1},
{4},,,,,,,,,
{8}7,8,
1/6,,3h[8:1],4h[8:1],5V38[8:5],,8,,7,,6,,
5,,3h[8:1],4h[8:1],5-1[8:3],,7,,6,,5,3,
24,,3h[8:1],4h[8:1],5h[8:2],,8,,5,7,2,4,
1h[4:1],,7h[4:1],,{12}5,6,4,{8}5,5,5,5,
2,1,8/3,,6h[8:1],5h[8:1],4V62[16:10],,1,,2,,3,,
4,,6h[8:1],5h[8:1],4h[8:2],,1,1,7,7,5,6,
74,,6,5,4,3,2/6h[4:1],,5h[4:1],,4h[4:1],,2,8,5,6,3,4,2/5pp2[16:7],6,7,,,,
{8}8b<5[16:7],,,,,,4,,3h[8:3],,,4q8[16:6],4v1[16:7],,,,,,5,,6h[8:2],,2v1[16:4],6,2>6[16:8],,,,,,
7,,8h[8:3],,,4,4<7[16:3],,,1>4[16:3],,,6<1[16:3],,,,3v4[16:4],,3>6[16:8],,,,,,
5,,6,,7,1>5[16:6],1qq1[16:8],,,,,,4,,3h[8:1],4h[8:1],2,6h[8:3],1,,
3,4,6,5,8,,6,3,4,5,61,{16}6,5,6,,3,,25,,6,,5>2[32:4]/7p3[32:4],,,,,,,,
1,,8,,
{8}7b/2b,,6h[8:1],5h[8:1],4h[8:1],3h[8:1],{12}6,5,6,{8}3,,16,2,3-8[8:1]/4,,
3,7,7-4[8:1],1,7/1-5[8:1],,81,,
6,7,8h[8:2]/2,,3h[8:1],4h[8:1],5h[8:1],6h[8:1],{12}2,4,3,{8}6,,83,7,6>3[8:1]/5,,6,2,
2q6[8:1],,2/6<4[16:6],,,,5,6,7h[8:2],,
2h[8:1],4h[8:1],5h[8:1],7h[8:1],{12}2,5,4,{8}7,,78,1,6-2[8:1]/2,,
6,3,3-5[8:1],7,7V51[16:5],,1,2,3,4,8h[8:2],,3h[8:1],4h[8:1],5h[8:1],6h[8:1],3,{16}3,4,3,,
{8}2,6>3[8:1],5,7h[8:3],,,2h[8:1],6h[8:1],1h[8:1],5h[8:1],8h[8:1],{24}4,3,2,1,8,7,65,,,4,,,
{8}
3/5,3/5,,68,6pp1[8:4]/8>3[8:1],,8b,,4h[8:1],,3h[8:1],,
24,24,,75,7qq4[16:7]/5,,4b,3,2,1,8,6,
7/5,7/5,,24,2pp6[8:4]/4<7[8:1],,4b,,8h[8:1],,7h[8:1],,
65,65,,34,3pp6[8:4]/4,,6b,,7,,8,,
75,6,6,7/5,7V15[8:2]/5>2[8:1],,7/5bpp4[16:6],,,,1,2,
35,4,4,3/5,3V15[8:2]/5<8[8:1],,3/5bqq2[16:6],,,,8,7,
68,7,1,82,3<6[8:1],6>3[8:1],3b>8[8:1],8>3[8:1],7,6,5<8[8:1],5,
{16}1b,2,3,4,6,5,7b,6,5,4,2,1,3b-8[8:1],,,,3b/6b-2[8:1],,,,
{8}6b<4[8:8]/1bs5[8:8],,,,,,,,,,,,5,,
6h[8:6]/1b,,,5,5,5,4h[8:6],,,5,5,5,6h[8:6],,,4,4,4,3h[8:2],,4,4,2,2,
7h[8:4],,,5,5,7,2,4,3,7,7,5,6>3[8:3],,,2,2,2,1-5[16:5],,,,6,6,
4b,,5,4,6,5,7h[8:2]/4,,4,5,3,4,2h[8:2],,5,4,7,5,8,8,7,7,6,56,74,,3,4,2,4,1/6h[8:2],,
7h[8:2],,8h[8:2],,{16}
2,1,2,1,2,1,2,1,
3,8,2,1,4,7,2,1,4q5[16:5],7,3,8,,,,,
8b,,,,65,,7,,3<6[8:1],4,2,4,3,,7,,8V26[16:4],,1,,2,,,,4,,3,,42,,5>2[8:1],3,6pp3[8:3],,5,,6,,,,,,
2,,1,,8,,7h[8:1]/1h[8:1],,,,26,,3,,4q8[8:1]/8,7,6,5,48,,1,,2h[8:1],,{16}4>1[8:1],5,{16}6qq7[16:6],,4,,6,,,,2,,1,,8<5[32:4],,,,3,2,1,8,4,3,2,1,5q1[16:2],4,3,2,
5b/1b,,,,24,,3,,6<1[8:1],5,7,5,6,,4,,3-5[16:2],,2,,3>8[16:2]/5,,,,3,,6,,75,,4-8[8:1],6,3qq7[8:3],,4,,3,,,,6,,,,
5q2[16:4],,34,,2V86[32:6]/5,,,,,,,,
4>8[16:4],,75,,8V25[32:8]/4,,,,,,
6,,7,,8,,1/2h[8:2],,4,,7h[8:2],,5,,2h[8:1],,4,,
1,8,1,8,{32}1,2,3,4,5,6,7,8,1,2,3,4,5,6,7,8,
{8}1b/5b,15,,47,7p3[8:1]/4,3<1[8:2],7b,1p5[32:5],2,3,4h[8:1],,
{8}7/4,74,,52,2q6[8:1]/5,6>8[8:2],2b,8q4[32:5],7,6,5h[8:1],,
1/5,15,,37,7-4[8:1]/3,4<7[8:1],7bV15[8:2],1,2,3,4h[8:1],,
{16}6,5,6,7,6,,3,4,3,2,3,,1/8h[8:2],,,,{24}7,6,5,4,3,2,6b/1b,,,2/7,,,
{4}8bz4[8:16]/3b,,,1h[1024:1],,,3,,,2h[1024:1],,
{16}46,,7,6,{4}5pp8[8:16],,,3h[1024:1],,,5,,,4-8[16:7],3-7[16:5],
