&title=EXIST
&artist=RAISE A SUILEN
&first=0
&des=DJL2374
&lv_5=13+
&des_5=谱面2374号
&inote_5=
(70){4},,,,8/3,
4/1,7/2,6/1,
8/5,7/1,8/3,{48}1/8,2,3,4,3,2,1-5[16:1],8,7,6,5,4,
{16}3<6[16:1],1,1,3>8[16:1],3,{8},{16}3,5-8[16:1],8>3[16:1],5,8-4[16:1],5,{8},{16}8,
7<4[16:1],7,3>8[16:1],3,{8}7-3[16:1],3,{4}7,{16}2-5[16:1],1,8,7-4[16:1],
2,7,3,7,3h[4:1],{8},{16}1,,1<6[16:1],4,1,{4}4h[16:3],
{16}7>2[16:1],8,3<6[16:1],4,{8}7-3[16:1],3,{16}7,{8},{32}3,2,{16}1,2,3,4,
{8}5,{16}7-1[16:1],7,{8}4-8[16:1],7,4,6v1[16:1],2v5[16:1],6,
2-6[16:1],{16}8/4,1/4,{8}2/4,{16}4,3,2-6[16:1],7,8/4,1/4,4/2,3,2-4[0.8919##0.278],1,
(65)8-6[16:1],2,2-6[0.9586##0.2747],8,(60){8}8-4[16:1],2,(50){16}8,3,2,1,(42){8}8,4,
(140){4}6b/4h[4:1],{8}7-5[8:1],8,7/2-4[8:1],1,2,7,
{4}4/8h[4:1],{8}3,7,{16}2/6,1,8,7,6/1,8,7,6,
{8}5/1,2,3/5-7[8:1],4,5/3-1[8:1],4,5/3,6,
5/2,6,5/2,1,{16}8/4,1/5,2/6,3/7,{8}4/8,7,
6/2,5,6/2>5[4:1],7,{4}2<6[4:1],2-6[4:1],
2,{8}4h[8:3],{16}5,6,{8}7,8,5/1h[8:1],6h[8:1],
2h[8:1],7,5/1,6/8-4[8:1],2,8/1-5[8:1],2,1/7-4[8:1],
8,7/3>8[8:1],2,3/7<4[8:1],6,7/1-5[8:1],8,1/6-2[8:1],
7,6,3-7[4:1],4,{4}3>7[4:1],3<6[4:1],
3,7,{8}5,4/6,5w1[8:3],4/6,
{2}5,{8}7-4[8:1],6,1-5[8:1],2,
{4}8h[8:1],{8}1qq5[8:3]/2-5[8:1],3/8,{2}2/1,
{8}1-4[8:1],8-5[8:1],1-3[8:1],8-4[8:1],1-5[8:1],8-6[8:1],1-4[4:1],8,
{4}1b,{16}7,5,6,5,{8}7,{24}3,8,2,{8}7,6/3,
4/5h[8:3],3,{4}4,{8}6,3,{16}7-4-8-3>6[2:1],4,{8}7,
{4}3h[8:1],4h[8:1],{8}3h[4:1],5,{4}4,
{16}7h[16:3]/2h[8:1],{8},{16}1,{8}6,4/8,{16}5h[8:1]/1h[16:3],{8},{16}6,{8}2,3/7,
2/6,{16}1,5,1,5,1,5,3,6,1,7,2,5,1,6,
{4}5h[16:3]/2h[16:3],3h[8:1]/1h[8:1],{8}2,{16}6/3,7/4,{4}8/5h[8:1],
{8}8b,2h[8:1],7b,2h[8:1],6b,{16}3,5,{8}3,2/6,
7/1-5[8:1],2,1/7<4[8:1],6,7/3>8[8:1],2,3/7-2[8:1],6,
7/4-1[8:1],3,{4}4/7h[8:1],{16}6,2,6,2,6,1,{8}5,
{4}6h[16:3]/2h[16:3],5h[8:1]/7h[8:1],{8}6,{16}2,6,2,6,{8}2h[8:1],
7b,1h[8:1],6b,8h[8:1],5b,{16}1/6,2/7,{4}3h[8:1]/8h[4:1],
{8},{16}2-5[8:1],1,2,1,{8}2,6h[4:1],4,5h[4:1],7,
6h[4:1],2,2h[8:1],7,{16}1,2,3/4,5,6/1,2,3/4,5,
{4}6/1h[4:1],{8}7<4[8:1],6,7/1-5[8:1],2,1/7-2[8:1],8,
7/4>1[8:1],5,4/6-2[8:1],7,6/1-4[8:1],8,1<6[8:1]/5>2[8:1],6,
{4}1/5,6,{16}1,1,7,3,8,8,2,6,
{4}3h[4:1],{8}7,{16}2,6,{8}1,{16}5,3,7,2,6,1,
{2}5b/8b,7b/2b,
7b/2b,7b/2b,
E
