&title=Misty Memory (Night Version)
&artist=塞壬唱片-MSR
&first=0
&des=Mizuno Mizumi
&lv_5=13+
&inote_5=(115){1},,,,,,,
{16},{96},
{1}2-6[4:7],,7-3[4:5],
{2},
{8}4-1[4:1],,,
{8},6,7,8-4[8:1]/1,,2h[4:1],,
{8}5-1[8:1],4/7,5/8,6h[16:1],
{8}8-3[8:1],3-7[8:1]/5,8/7-5[8:1],5-1[8:1],1>4[2:1],8,7h[2:1],,,,,,
{8}7<4[8:1],4<7[8:1],7/3,2<7[8:3],,,7-2[16:3]*-4[16:3],
{8},,,
{8},6,5-1[8:1]/4,,3h[4:1],,
{8}8-4[8:1],1/6,8/5-3[8:1],
{16}7,7,5-1[8:1],,
{8}1-5[8:1],5<8[8:1],8>3[8:1],D7,C,
{8}5-7[4:1],,7-1[4:1],,1-3[4:1],,5,,
{8}4-2[8:1],2-8[8:1]/5,4-6[8:1],6-8[4:1]*-2[4:1],4,,,,
{8},
{16}8,2,5-2[8:1],,2,7,5-8[8:1],,8-3[8:1],,5/4,,,,
{8},
{16}2,5,8-5[8:1],,7-3[16:3],2,8,,
{8}B1/B2,B1/B2,
{8},,
{16}4,6,2-7[8:1],,7,4,2-5[8:1],,5-8[8:1],,2/1,,,,
{8},
{16}7,2,5-2[8:1],,4,7,5-8[8:1],,7,3,5,,
{8},,
{16}8,2,5-2[8:1],,3,7,5-8[8:1],,8-3[8:1],,5/4,,,,
{8},
{16}7,4,1-4[8:1],,3-6[16:3],7,1,,
{8}B8/B7,B8/B7,
{8},,
{16}5,3,7-2[8:1],,2,5,7-5[8:1],,5-1[8:1],3,7,,,,
{8},
{16}4,7-3[8:1],2,,5-7[16:1],7-1[16:1],,,5-1[8:1],,4,,5,,
{8},
{192},,
{8}2,1-5[8:1]/8,,7h[4:1],,
{8}4-8[8:1],
{16}5/2,2,
{8}4,3h[16:1],
{8}1-5[8:1],7/5-2[8:1],1/2-4[8:1],4-8[8:1],8<5[2:1],1,2-4[8:1],,2,,2-8[8:1],,
{8}2>5[4:1],5,5<8[4:1],,8>3[4:1],,3<6[4:1],,6-2[1:2],,,,,,,,
{1},
{8},,
{2}3-7[4:5],
{8},,,,,
{16},5-8[2:1],
{8},,,,,,
{96},
{8}2,1,8,7,8/6,1,2,3,4/8,5,6,7,2h[4:1]/8,,,
{24}7,6,5,4h[2:1],,,,,,
{8},,
{8}8,
{32}3,2,
{16}1,5,,
{8}2,7h[32:7],,
{32},3,,4,,5,,
{12}6,5,4,
{8}3,
{8}4q5[2:1],
{96},
{32}B7,C,,,
{8},,,,,
{32},
{8}C/B2/B3,C/B2/B3,,
{8}3,2/5,1,2/6,3,4/7,5,4/6,3,2/5,1,8/4,7,6/2,5,7/4,
{8}6,7/4,8,7/3,6,5/2,4,5/3,6,7/4,8,1/5,2,3/7,4,
{8}2,3/8,4/B8,3/7,2,1/6,8,1/7,2/B6,3/8,4,5/1,6,7/3,8,6/1,
{8}7/B3,6/1,5,6/2,7/B5,8/3,1,8/2,7/4,6/1,5/3,4/8,3/6,5-2[8:1]*-8[8:1]/2,4/6,
{48}5-1[8:15]/B5f,B4f/B6f,E7/E4/B3/B7/Cf,E3/E8,,,
{8},,,,,,,,
{8}4h[8:3],,,,,5,,
{8}6h[2:1],,,,
{48}B7,B6,,
{8},,,
{96},,,,,
{8}6,5,4,,3h[2:1],,4h[4:1],,
{4},
{8}2,1,8,7,,,5,,4,,,,
{8}2,5,4,6h[2:1],,E7,,C,,{16},,E3,,
{16}E2,,
{32}E8,,,,
{16},,
{96},
{16}B6,,
{8},,
{32},,,,,,,,
{1}5-1[1:2],,
{4}3-7[2:3],,
{8},,,,,,,,,,,
{32},,,
{96},,
{4}6/7-2[8:13],6,6,6,6,6,6,6,
{2}5h[16:33],Ch[1:1],,,
{32}6,7,8,1,2,3,4,5,
{8}2-6[8:1]/6,1/5,2/4-8[8:1],3,2v1[8:1]/4,1V37[8:1],
{16}2,,
{8}5,,
{8}6,2h[4:1],3,8h[4:1],7,1>4[8:1],
{16}4qq8[4:1],4,1,,8>5[8:1],,
{8}7,7V51[4:1],6,7/1>4[4:1],,
{16}4<8[4:1],,,,8>2[8:1],1>3[8:1],2>4[8:1],3<5[8:1],4<6[8:1],,
{16}7,8,1,2,3-7[8:1],,,,
{8}3>8[8:1]/7,8pp3[4:1],3/6,5-8[8:1],6,5>1pp4[16:5],,5,,,8-4[8:1],7,
{16}3/8,3,
{16},5,
{16}2,4,3,5,4,6,5,7,7,2,8,1,
{24}5,6,7,
{32}8,1,2,3,
{8}4-6[8:1],3,4/7-1[8:1],1-5[8:1],7/3>7[32:3],,3,
{8},,
{16}7,2,5-2[8:1],,4,7,5-8[8:1],,7,3,5-1[8:1],,3,6,5,,
{16}7,2,8-4[8:1],,3-6[16:3],,8,,
{8}B2/B1,B2/B1,
{8},,
{16}4,6,2-7[8:1],,7,4,2-4[8:1],,4-8[8:1],6,2,,,,
{8},
{16}7,2,5-2[8:1],,4,7,5,,7-2[8:1]*-4[8:1],,1/5,,7,,
{8},
{16}5,3,8-4[8:1],,4,6,8-6[8:1],,6-2[8:1],2,8,,,,
{8},
{16}6,1,4-1[8:1],,2-7[16:3],6,4,,
{8}B5/B6,B5/B6,
{8},,
{16}4,6,1-6[8:1],,6,3,1-4[8:1],,5,,1,,2,,
{16}1/8,7,,4,7-4[8:1],,2/4-1[8:1],,1-4[8:1]/7,,8,,8pp2[8:1]b*qq6[8:1]b,,,,8/Cf,,,,,,
E
&inote_6=
