&title=DA'AT -The First Seeker of Souls-
&artist=水野健治 VS 大国奏音
&first=0.11
&des=Astral Fiber
&des_5=Astral Fiber
&lv_5=14+
&inote_5=(222)
{1},,
{4}8h[1:6]/2qq6[2:3],,,,,,,,5-3>1v4[2:3],,,,,,,,4,,3,,2,,1,,2h[4:7],,3,4,5,6,7,8,
{4}1h[1:4]/8>4-6[2:3],,,,,,,,7,,6,,5pp4[2:1],,,,4h[2:3],,,8,1,2,3h[4:1],5,6p3[1:1],,,,,,2,1qq6[2:3],2q5b[4:5],,,,,,,,
{16}8b<5[8:1],,,,8b/4b,3,2,1,8,7,6,5,
{16}4b>1[8:1],,,,4b/8b,7,6,5,4,3,2,1,
{16}8b-4[8:1],,,,8b/5b,6,7,8x,1,2,3,4,
{16}5b-1[8:1],,5b,,5b-2[8:1]*-8[8:1],,,,B5,,,,
{16}1b>4[8:1],,,,1b/5b,6,7,8,1,2,3,4,
{16}5b<8[8:1],,,,5b/1b,2,3,4,5,6,7,8,
{16}1b-5[8:1],,,,1b/4b,3,2,1x,8,7,6,5,
{16}8b-4[8:1]/4,,8b,,8b-3[8:1]*-5[8:1],,,,B8,,,,
{8}7b>2[8:1],,5,4b,3V15[4:1],,
{16}8,7,6bh[8:1],,,,,,4,,4b/8,,,,8b<5b[8:1]/4>1[8:1],,,,A4f/8bq1[4:7],,,,,,
{16}2x,4,2x,4,2x,4,3x,5,3x,5,4x,6,4x,6,5x,7,5x,7,6x,,,,,,,,,,
{1}Ch[32:1]/4xw8b[37#48:1],,
{8}1bx-4[8:1],,1-6[8:1]/8x,,1>4[8:1]/3x,,1<6[8:1]/7x,,1-4[8:1]/2x,,1-6[8:1]/8x,,1/3x,,2x/5x,3x/6x,
{8}4x/7x-5[8:1],,2x/7-1[8:1],,4x/7-5[8:1],,2x/7-1[8:1],,3x-8[8:1]/7-4[8:1],,3/7x,,
{16}1x/6x,,2x/7x,,8x,4,8x,4,
{8}7x-4[8:1],,7x/1-5[8:1],,1/6x>3[8:1],,6/2x-6[8:1],,2/8x<5[8:1],,
{16}8x/4x,3,2,1,8xh[8:1],,5,2,7xh[8:1],,3x,,
{8}4x>1[8:1],,4/7x-3[8:1],,2x-4[8:1]*-6[8:1]/7,,2x,,
{16}8h[8:1],,2,3,4h[8:1],,6,7,8/4,3,2,1,
{24}5/8,4,3,2,1,8,
{16}7x-4[8:1],,7,,1x-5[8:1],,1,,8x<5[8:1],,8,,4x,3,2,1,8x-3[8:1],,8,,6x-2[8:1],,6,,4x>1[8:1],,4,,8x,7,6,5,
{16}4x-7[8:1],,4,,2x-5[8:1],,2,,6x<1[8:1],,6,,1x,2,3,4,5/8x,7,6,5,3x,2,1,8,
{16}4xh[8:1],,2h[8:1],,7x,3,7,3,
{16}7x-4[8:1],,7,,1x-5[8:1],,1,,8x<5[8:1],,8,,4x,3,2,1,8x-3[8:1],,8,,6x-2[8:1],,6,,4x>1[8:1],,4,,8x,7,6,5,
{8}4b/8bx-2>4b[16:3],,
{16}8b/5b,,6h[4:1],,,,5V31[16:3],5,7,,5,,
{16}7<2[16:5],6>1b[16:5],5>8[16:5],4>7b[16:5],A7,A6,A5,A4,
{32}B5,B4,B3,B2,B1,B8,B7,B6,E6/D6,E5/D5,E4/D4,E3/D3,E2/D2,E1/D1,E8/D8,E7/D7,
{4}Cf,,,,,,,,
{4}5h[2:1],,1h[2:1],,
{4}8b<3<8b[2:3],,3,,1,2,3h[4:1],,4>7>4b[2:3],,7,,5,6,7h[4:1],,
{4}8V64[2:1],6V42b[2:1],3h[2:1],,,1V35[2:1],8,7,
{8}6h[8:3],,,2q1>5[8:9],2/6q5<1b[1:1],,,,C,,,,,,,,
{4}3V51<7b[4:3],,6,7>5[4:3],6,5,6,7,8h[2:3],,6,5,4h[2:1],,,
{8}7h[8:1],5h[8:1],6h[8:1],5h[8:1],6h[8:1],4h[8:1],6h[8:1],3h[8:1],6h[8:1],2h[8:1],7h[8:1],8h[8:1],6h[8:1],1h[8:1],5h[8:1],2h[8:1],4h[8:1],3h[8:1],
{16}5bh[4:1],,,,2,6,2,6,2,6,2,6,1,5,1,5,
{24}2,3,4,5,6,7,8,1,2,3,4,5,
{32}8,7,6,5,4,3,2,1,8,7,6,5,4,3,2,1,
{8}8b-4[8:1],,1/8,,2>5[8:1]/6<1[8:1],3/7,2/6-2[8:1],,6/8-4[8:1],,8/3-7[8:1],,3/1-6[8:1]*-5[8:1],,1,,
{8}2-4[8:1],,2-8[8:1]/6-4[8:1],,2/6-8[8:1],,6/1x,,3v5[8:1],5V31[4:1],3,1,8,,A7/E7/B7,,
{16}1<7-5[4:1],2,3,4,5<7-1>3[8:3],4,3,2,1-3[8:1],,,,,,,,
{16}8>2-4[4:1],7,6,5,4>2-8<6[8:3],5,6,7,8-6[8:1],,,,,,,,
{8}8x-4[8:1],,2>5[8:1]/8,,2/6-2-8[4:1],,6/1,,
{8}3h[16:1],3h[16:1],2h[16:1]/4h[16:1],2h[16:1]/4h[16:1],5h[16:1]/1h[16:1],6h[16:1]/2h[16:1],3b/7b,,
{16}4b,6,4,6,3,7,3,7,
{32}2h,3,4,5,1h,2,3,4,7h,6,5,4,8h,7,6,5,
{8}8bx,8xw4b[8:1],,8b,,,,,
{16}8h[32:1],2h[32:1],7h[32:1],3h[32:1],5h[32:1],2h[32:1],6h[32:1],1h[32:1],
{32}7h,6,5,4,8h,7,6,5,2h,3,4,5,1h,2,3,4,
{8}1bx,1xw5b[8:1],,1b,,,,,
{8}8bV64[2:1],,,,4<1b[1:1],,,,C,,,,,,2,3,4V28b[2:1],,,,8>5[1:1],,,,C,,,,,,,,
{32}8b,7,6,5,8,7,6,5,
{16}4h[16:1]/8h[8:1],,,,2h[16:1]/6h[8:1],,,,
{32}1b,2,3,4,1,2,3,4,
{16}5h[16:1]/1h[8:1],,,,7<4[8:1]/3h[8:1],,,,
{32}7bx/4bx,3,2,1,,,,,1bx/5bx,2/6,3/7,4/8,1/5,,,,
{32}7b,6,5,4,7,6,5,4,
{16}3h[16:1]/7h[8:1],,,,1h[16:1]/5h[8:1],,,,
{32}2b,3,4,5,2,3,4,5,
{16}6h[16:1]/2h[8:1],,,,8<5[8:1]/4h[8:1],,,,
{32}8bx/4bx,3,2,1,,,,,4bx/8bx,1/5,2/6,3/7,4/8,,,,
{16}Cf,,,,3,5,3,5,3,4,3,4,3,4,3,2,3,2,3,2,3,2,1,2,1,2,1,2,D1f/E1,,E8/E2,,
(111)
{16},C/B5/B4/E5,,,,,
(222)
{4}5bh[4:3],,1h[4:1],,
{8}2b>5[8:1]/7b,,2/8,,1<6[8:1]/6-3[8:1],,1-5[8:1]/6,,1/7<4[8:1],,2<7[8:1]/7,,2/3v8[8:1],,3/4,4,
{16}1-6b[8:1]/5-2[8:1],,,,1/5,,,,3/7,4/8,1/5,2/6,3/7,4/8,1/5,2/6,3v8[8:1]/7-4[8:1],,,,3/7>5[8:3],,,,5b,,6,,7h[16:1],,7h[16:1],,
{16}8-3[8:1],,,,8-4[8:1]/2,,,,8/6,,,,3/7,2/6,1/5,4/8,3-6[8:1]/7-2[8:1],,,,3/7>5[4:1],,,,7,,,,
{24}7,8,1,2,3,4,
{16}5h[8:1],,7,1,4h[8:1],,2,8,1-5[8:1],,2,,1/6,,7,,
{16}8-4[8:1],,2,,8,,5h[8:1],,3,2,1,8,4/7,3/6,2/5,1/4,
{16}8b,,7,5,6,,1/8,,2,4,3,,7-3[8:1],5,6,5,7,,4h[4:1],,2V48[4:1],1,8,7,6-1b[8:1],,5-2[8:1],,6,,5,,
{32}8,,,,7/3,,,,7,6,5,4,1,2,3,4,
{32}5/7,,,,2/8,,,,2-8[8:1],3,4,5,8,7,6,5,
{32}2-4[8:1],,,,7,6,5,,2,,,,8,7,6,,A2,E3,E4,A4,A7,E7,E6,A5,1b/D5f,,,,,,,,
{16}2,1,3,8,4,6,2,5,
{24}2x,3,4,5/6,7,8,1x/4x,3,2,1/8,7,6,
{16}3,4,3,4,2,5,2,6,
{32}2-6[8:1],3,4,,8,,8,,2,,,,7,,,,
{8}5bp1[8:1],4,8p4[8:1]/5,7,2b<5[4:1],2,3,4,
{16}3b,4,3,4,2,5,2,5,1b,6,1,6,8,7,8,7,
{16}1,2,3,4,8>5[16:5],1>6[16:5],2>7[16:5],3<8[16:5],A8,A1,A2,A3,A4,A5,A6,A7,
{16}3,4,5,6,4<1b[16:5],5<2b[16:5],6<3b[16:5],7>4b[16:5],A4,A5,A6,A7,A8,A1,A2,A3,
{16}8,7,6,5,1<4[16:5],8<3b[16:5],7<2[16:5],6>1b[16:5],A1,A8,A7,A6,A5,A4,A3,A2,
{16}6,5,4,3,7<2b[16:5],6>1[16:5],5>8b[16:5],4>7[16:5],A7,A6,A5,A4,A3,A2,A1,A8,
{4}5bxw1b[8:3]/D7f/E7/A6,,,,4bxw8b[8:3]/D3f/E3/A3,,,,
{8}3bx/4bx,2,5bx/6bx,7,3bx/4bx,1,5bx/6bx,8,7bx/1bx,7,7bx/2bx,7,
{16}4bx,6,4bx,6,3bx,7,2bx,8,
{16}1b,4,3,4,2b,5,4,5,1b,4,2,4,3b,5,4b,6,5b,7,5,7,4b,8,4,8,4b,3,2,1,
{24}5b,4,3,2bx/5bxh[16:1],1,8,
{16}7bx,4x,5x,4x,8b,5,6,5,7b,4,5,4,6b,3,5b,2,4b,1,4,1,5b,2,5,2,
{16}7b,1b,5b,2b,8b,4b,6b,3b,
{8}7b,7/8b,7b/8,7/8b,5/6b,3/4b,
{16}2b,1b,2b,,
{8}3/4b,3b/4,1/7b,1b/7,5b/6,5/6b,2b/8,2/8b,
{16}2/4b,,1b,8b,1b,,5/7b,,4b,6,4b,6,3b,7,3b,7,
{16}2b,8b,2b,8b,1b,1b,1b,1b,
{32}3bx,4bx,5bx,6bx,2bx,3bx,4bx,5bx,1bxqq7qq5>3b[4:3],2bxh[64:1],3bxh[64:1],4bxh[64:1],5bxh[64:1],6bxh[64:1],7bxh[64:1],8bxh[64:1],
{1},
{24}2b-5[8:1]/6,,,,,,2b/6b,7,8,1h[8:1],,,4,3,2,1,8,7,
{24}2b-7[8:1]/6b-3[8:1],,,,,,2b/6b,,,,,,2,1,8,7,6,5,
{24}4b-1[8:1]/8b,,,,,,4b/8b,7,6,5h[8:1],,,2,3,4,5,6,7,
{8}4bx<7[8:1]/8bx>3[8:1],4bx/8bx,4bxv1[8:1]/8bxv5[8:1],,B1/C/B5/B8/B4,,
{24}7b-4[8:1]/3,,,,,,7b/3b,2,1,8h[8:1],,,5,6,7,8,1,2,
{24}7b-2[8:1]/3b-6[8:1],,,,,,7b/3b,,,,,,7,8,1,2,3,4,
{24}5b-8[8:1]/1b,,,,,,5b/1b,2,3,4h[8:1],,,7,6,5,4,3,2,
{8}5bx>2[8:1]/1bx<6[8:1],5bx/1bx,5bxv8[8:1]/1bxv4[8:1],,B8/C/B4/B1/B5,,
{24}3b/7b,2/6,1/5-1[8:1],,,,
{64}D3f/5bx,A3,D4/6,A4,D5/7,A5,8h[8:1],,,,,,,,,,B8,,C,,B4,,,,,,,,,,,,
{24}6b/2b,7/3,8/4-8[8:1],,,,
{64}D7f/4bx,A6,D6/3,A5,D5/2,A4,1h[8:1],,,,,,,,,,B1,,C,,B5,,,,,,,,,,,,
{32}4/7b<4b[8:1],,,,4/7b,,,,
{40}A4f/7b-3[8:1],D4,A3,D3,A2,D2,A1,D1,A8,D8,
{8}5x/A7,,6bx,2bx/6bx,
{48}A7f/1bx-5[8:1],D8,A8,D1,A1,D2,A2,D3,A3,D4,A4,D5,A5/C,,,,,,,,,,,,
{24}6bx/2bx,7/3,8/4-8[8:1],,,,
{64}D7f/4bx,A6,D6/3,A5,D5/2,A4,1h[8:1],,,,,,,,,,B1,,C,,B5,,,,,,,,,,,,
{24}3b/7b,2/6,1/5-1[8:1],,,,
{64}D3f/5bx,A3,D4/6,A4,D5/7,A5,8h[8:1],,,,,,,,,,B8,,C,,B4,,,,,,,,,,,,
{32}5/2b>5b[8:1],,,,5/2b,,,,
{40}A5f/2b-6[8:1],D6,A6,D7,A7,D8,A8,D1,A1,D2,
{8}4x/A2,,3bx/7bx,,
{48}A2f/8bx-4[8:1],D2,A1,D1,A8,D8,A7,D7,A6,D6,A5,D5,A4/C,,,,,,,,,,,,
(213)
{4}2bx/6bx,,,,,,8h[128:165],,,,
(138)
{16},,,2h[8:1],,3h[8:1],,4h[8:1],,
{16}A8,E1,E2,A7,B7,C,E6,E5,A4,A2,E3,E4,A4,E1,E8,A7,A2,B2,C,A5,E5,E4,A3,
{4}1h[1:1],,,,,1w5[4:7]/8w4b[4:7],,
