&title=シカ色デイズ
&artist=シカ部 [鹿乃子のこ(CV.潘めぐみ)、虎視虎子(CV.藤田咲)、虎視餡子(CV.田辺留依)、馬車芽めめ(CV.和泉風花)]
&first=0.005
&lv_5=13
&des_5=小鹿包Bambi.
&inote_5=
(183.04){4},,,,,,D7/B7/B2/D3/B6/B5/E5/B4/B3/D5,
{8}7h[8:3],8,
8,8,2h[8:3],1,1,1,{4}8v5[8:1],
6v3[8:1]/8-3[8:1],6/8,{8},,7h[8:3],8,
8,8,2h[8:3],1,1,1,{4}8v3[8:1],
2v5[8:1]/8-5[8:1],2/8,{8},,7h[8:3],8,
8,8,2h[8:3],1,1,1,{4}8-2[8:1]*-6[8:1],
8-4[8:1],8/3-6[8:1]*-5[8:1],{8},,7h[8:3],8,
8,8,2h[8:3],1,1,1,{4}8-2[8:1]*-6[8:1],
8-4[8:1],8/4>1[8:1]*v7[8:1],A3/E4f,6-3[8:1],
8,1<6[8:1],{8}2,3h[4:1],,5,
{4}4/6-1[8:1],{8}6,2v5[8:1],8-6[8:1]*-5[8:1],2,{4}8-3[8:1]*-2[8:1],
8,{8}6,6h[4:1],,3,{16}3,4,{8}2,
2,2,2/1,4/3,{4}5/6,8/7-2[8:1],
3,4<7[8:1],{8}3,2h[4:1],,8,
{4}1/7-4[8:1],{8}7,3v8[8:1],5-7[8:1]*-8[8:1],3,{4}5-2[8:1]*-3[8:1],
5,{8}7,7h[4:1],,2,{16}2,1,{8}3,
3,3,3/4,5/6,8/7,1/2,3-7[8:1],4,
3,4,8,8,8,8,6-2[8:1],5,
6,5,1,1,1,1,8-4[8:1],7,
8,7,3,3,3,3,4,5,
6,7,8,1,2,3,{4}4v7[8:1]*p8[8:1],
,4v7[8:1]*-1[8:1],{16},,,,8b,8b,8b,8b,
8b,8b,8b,8b,8b,8b,8b,8b,{4}8b/Cf,{8}6-4[8:1],8,
8,8,6-3[8:1],8,8,8,1-7[8:1],2,
{2}1pp5[8:3],{32}D7,B7,D8,E1,,,,,{8}4-2[8:1],1-4[8:1],
4,1,8-6[8:1],5-8[8:1],8,5,4,3-6[8:1],
,3/1,{4}1v4[8:1],{8}2,2,5-8[8:1]/8-5[8:1],8/5,
,,4-1[8:1]/1-4[8:1],1/4,,,7,6-4[8:1],
,4/6,3,1b/2b,{4}8b/7b,1h[8:1]/6h[8:1],
4h[8:1]/3h[8:1],{8}5/2,5/2,4/3,4/3,7h[8:1],4h[8:1],
6h[8:1],5h[8:1],7h[8:1],4h[8:1],6h[8:1],5,3/6,5/4,
3/6,4/5,6/2,7/1,2/6,7/3,{4}8<4[8:1]/4>8[8:1],
8q4[8:1]/4q8[8:1],8bx/4bx,,3h[4:1],
2h[4:1],1h[4:1],7h[4:1],5h[4:1],
4q5[8:5],4,,2h[4:3],
7h[2:1],,,3x-5[16:1]/6x-4[16:1],
{8},2x-5[16:1]/7x-4[16:1],,,{2}1x>8[8:3]/8x<1[8:3],
{8},,2/7,7/2,2/7,7/2,,1/8,
{4}2/7,{8}4/5,6/3,,1,{4}1-7[16:1],
2-6[8:1]*-6[8:1],3b-5b[16:1],,7-1[8:1]/4-2[8:1],
4/7-5[8:1],{8}3/7,2-4[8:1],1,2-8[8:1]/5-7[8:1],,2/5-3[8:1],
,1-7[8:1],2,1,,5,6,7-5[8:1],
,5,4,3-5[8:1],,3/7-1[8:1],,3,
{4}3-7[8:1],3/1>7[4:1],{2}1/8h[4:1],
{4}8-5[8:1],8/2-6[8:1],7/2-4[8:1],{8}2/7-5[8:1],8,
7/2,1pp5[8:3],7,1,,6-1[8:1],,6,
{4}5,{8}7/3,6/2,7/3,6/2,{4}1v7[8:1],
6V82[16:3],3V17[16:3],8v2[8:1],5-7[8:1],
5/1-3[8:1],{8}6/1,7-5[8:1],8,7-1[8:1]/4-2[8:1],,7/4-6[8:1],
,8-2[8:1],7,8,,4,3,2-4[8:1],
,4,5,6-4[8:1],,6/2-8[8:1],,6,
{4}6-2[8:1],6/8<2[4:1],{2}8/1h[4:1],
{4}1-4[8:1],1/7-3[8:1],2/7-5[8:1],{8}7/2-4[8:1],1,
2/7,8qq4[8:3],2,8,,3-1[8:1],,3,
5,6,6,{16}2,1,{8}3,4/5-7[8:1],,5,
{4}3,{16}3,5,4,5,4,5,4,5,{8}3-7[8:1],2,
4-1[8:1],4,3-7[8:1],2,4,4,,5/4,
{4}6-3[8:1],8-5[8:1]/6-8[8:1],{8},,4/7,6/3,
7/4,6/3,{4}2>5[8:1]/5-2[8:1],{8},,1/7,6/8,
7/1,2/8,,5b/3b,{4}7b/1b,{8}2-6[8:1],1,
7-3[8:1],8,4-8[8:1],5,6-2[8:1],6,4-8[8:1],3,
{4}4/5<3[4:1],5/3,{8},1h[4:1],,3,
{4}5/2-6[8:1],2/1-5[8:1],1/8-4[8:1],8/7-3[8:1],
7/2>5[8:1],{8}6,8-4[8:1],,4,3h[8:3],2,
2,2,6h[8:3],7,7,7,{4}4-6[8:1]*-2[8:1],
4-8[8:1],4/7v5[8:1]*q4[8:1],{8},,7h[8:3],6,
6,6,2h[8:3],3,3,3,{4}1-3[8:1]/5-2[8:1],
5-7[8:1]/1-6[8:1],1b/5b,
E
